Охотники на Троллей / Trollhunters / Сезон: 3 / Серии: 1-13 из 13 (Родриго Блаас, Грег Тирнан) [2018, США, фэнтези, комедия, приключения, WEB-DL 1080p] DUB (Пифагор) + Original + Sub (Rus, Eng)

Страницы:  1

Ответить
Автор
Сообщение

ZgurVas

Top Bonus 05* 10TB

Стаж: 4 года 11 месяцев

Сообщений: 494

ZgurVas · 09-Май-19 14:56 (2 месяца 14 дней назад, ред. 09-Май-19 15:01)

Охотники на Троллей / Trollhunters


Страна: США
Жанр: мультфильм, фэнтези, комедия, приключения
Продолжительность серии: ~00:23:36
Год выпуска: 2018
Перевод: Профессиональный (полное дублирование) Пифагор
Режиссёр: Родриго Блаас, Грег Тирнан
Сценарий: Марк Хеймс, Том Вилер, Гильермо дель Торо
Роли озвучивали: Антон Ельчин (Джим Лейк Младший / Jim Lake Jr.), Чарльз Сэкстон (Тоби Домзальски/ Toby Domzalski), Лекси Медрано (Клер Нуньез / Claire Nuñez), Келси Грэммер (Блинки (Моргунчик) / Blinky), Фред Татаскьор (АААРРРГГХХХ!!! / AAARRRGGHH!!!), Джонатан Хайд (Мистер Стриклер / Mr. Strickler), Эми Ландекер (Барбара Лейк / Barbara Lake), Клэнси Браун (Гунмар / Gunmar), Томас Кенни (Отто Скаарбах / Otto Scaarbach), Лорен Том (Мэри Вонг / Mary Wang), Мэттью Уотерсон (Драал / Draal), Стивен Юн (Стив Палчак / Steve Palchuk), Ларейн Ньюман (Бабуля / Nana), Коул Сэнд (Илай Пейперджек / Eli Pepperjack), Джимми Вуд (НеЭнрике / NotEnrique), Виктор Рэйдер-Векслер (Вендел / Vendel), Айк Амади (Ангор Рот / Angor Rot), Томас Фрэнсис Уилсон (Тренер Лоуренс / Coach Lawrence) Рон Перлман (Булар / Bular);
Описание: В руки пятнадцатилетнему юноше попадает Магический Амулет, который даёт ему звание Охотника на Троллей, призванного защищать Троллей, живущих под землёй — под человеческим городом Аркадия. «Охотники на Троллей» - мультсериал в жанре комедии и фэнтези, вышедший в 2016 году. Он расскажет о легендарной битве, участниками которой станут Люди и Тролли.



Предыдущие и альтернативные раздачи


Качество: WEB-DL 1080р
Формат: MKV
Видео: MPEG4 AVC, 1920x1080, 23.976 fps, ~5000 Кбит/сек
Аудио : Русский Пифагор: E-AC3, 48 KHz, 640 Kbps
Аудио : Английский (Оригинал): E-AC3, 48 KHz, 640 Kbps
Субтитры: Русские (Forced, Full), английские (SDH)
Реклама: Отсутствует
Спасибо:
Список серий:
01 Ночной патруль | A Night Patroll
02 Преступники Аркадии | Arcadia's Most Wanted
03 Дрянной кофе | Bad Coffee
04 Моя девушка - ведьма | So I'm Dating a Sorceress
05 Экзорцизм Клэр Нуньес | The Exorcism of Claire Nunez
06 Родительский контроль | Parental Guidance
07 Клятва | The Oath
08 Во славу Мерлина | For the Glory of Merlin
09 В надёжных руках | In Good Hands
10 Раздор | A House Divided
11 Охотники на Джима | Jimhunters
12 Битва. Часть 1 | The Eternal Knight (1)
13 Битва. Часть 2 | The Eternal Knight (2)
MediaInfo
Полное имя                               : D:\RELEASE\Trollhunters.S03.1080p.WEB-DL.DUB.EniaHD\Trollhunters.S03E01.A.Night.Patroll.1080p.WEB-DL.DUB.EniaHD.mkv
Формат : Matroska
Версия формата : Version 4
Размер файла : 1013 Мбайт
Продолжительность : 23 м. 38 с.
Режим общего битрейта : Переменный
Общий поток : 5989 Кбит/сек
Название фильма : Ночной патруль
Дата кодирования : UTC 2019-05-09 09:19:43
Программа кодирования : mkvmerge v32.0.0 ('Astral Progressions') 32-bit
Библиотека кодирования : libebml v1.3.7 + libmatroska v1.5.0
Обложка : Yes
Attachments : cover.trollhunters.s03.jpg
Видео
Идентификатор : 1
Формат : AVC
Формат/Информация : Advanced Video Codec
Профиль формата : [email protected]
Настройки формата : CABAC / 3 Ref Frames
Параметр CABAC формата : Да
Параметр RefFrames формата : 3 кадра
Идентификатор кодека : V_MPEG4/ISO/AVC
Продолжительность : 23 м. 36 с.
Вид битрейта : Переменный
Битрейт : 4870 Кбит/сек
Максимальный битрейт : 7305 Кбит/сек
Ширина : 1920 пикселей
Высота : 1080 пикселей
Соотношение сторон : 16:9
Режим частоты кадров : Постоянный
Частота кадров : 23,976 (24000/1001) кадра/сек
Цветовое пространство : YUV
Субдискретизация насыщенности : 4:2:0
Битовая глубина : 8 бит
Тип развёртки : Прогрессивная
Бит/(Пиксели*Кадры) : 0.098
Размер потока : 795 Мбайт (79%)
Библиотека кодирования : x264 core 148 r2714 2daf636
Настройки программы : cabac=1 / ref=3 / deblock=1:0:0 / analyse=0x1:0x111 / me=umh / subme=10 / psy=1 / psy_rd=1.00:0.00 / mixed_ref=1 / me_range=24 / chroma_me=1 / trellis=2 / 8x8dct=0 / cqm=0 / deadzone=21,11 / fast_pskip=1 / chroma_qp_offset=-2 / threads=6 / lookahead_threads=1 / sliced_threads=0 / nr=0 / decimate=1 / interlaced=0 / bluray_compat=0 / stitchable=1 / constrained_intra=0 / bframes=2 / b_pyramid=0 / b_adapt=2 / b_bias=0 / direct=3 / weightb=1 / open_gop=0 / weightp=2 / keyint=48 / keyint_min=25 / scenecut=0 / intra_refresh=0 / rc_lookahead=48 / rc=2pass / mbtree=1 / bitrate=4870 / ratetol=1.0 / qcomp=0.50 / qpmin=6 / qpmax=51 / qpstep=4 / cplxblur=20.0 / qblur=0.5 / vbv_maxrate=7305 / vbv_bufsize=9740 / nal_hrd=vbr / filler=0 / ip_ratio=1.40 / aq=1:1.00
Язык : English
Default : Да
Forced : Нет
Аудио #1
Идентификатор : 2
Формат : E-AC-3
Формат/Информация : Enhanced AC-3
Коммерческое название : Dolby Digital Plus
Идентификатор кодека : A_EAC3
Продолжительность : 23 м. 38 с.
Вид битрейта : Постоянный
Битрейт : 640 Кбит/сек
Каналы : 6 каналов
ChannelLayout : L R C LFE Ls Rs
Частота : 48,0 КГц
Частота кадров : 31,250 кадров/сек (1536 SPF)
Метод сжатия : С потерями
Размер потока : 108 Мбайт (11%)
Заголовок : E-AC3 5.1 @ 640 kbps - DUB, Pythagor
Язык : Russian
ServiceKind/String : Complete Main
Default : Да
Forced : Нет
Аудио #2
Идентификатор : 3
Формат : E-AC-3
Формат/Информация : Enhanced AC-3
Коммерческое название : Dolby Digital Plus
Идентификатор кодека : A_EAC3
Продолжительность : 23 м. 38 с.
Вид битрейта : Постоянный
Битрейт : 640 Кбит/сек
Каналы : 6 каналов
ChannelLayout : L R C LFE Ls Rs
Частота : 48,0 КГц
Частота кадров : 31,250 кадров/сек (1536 SPF)
Метод сжатия : С потерями
Размер потока : 108 Мбайт (11%)
Заголовок : E-AC3 5.1 @ 640 kbps - Original
Язык : English
ServiceKind/String : Complete Main
Default : Нет
Forced : Нет
Текст #1
Идентификатор : 4
Формат : UTF-8
Идентификатор кодека : S_TEXT/UTF8
Идентификатор кодека/Информация : UTF-8 Plain Text
Продолжительность : 22 м. 34 с.
Битрейт : 1 бит/сек
ElementCount : 7
Размер потока : 225 байт (0%)
Заголовок : Forced
Язык : Russian
Default : Да
Forced : Нет
Текст #2
Идентификатор : 5
Формат : UTF-8
Идентификатор кодека : S_TEXT/UTF8
Идентификатор кодека/Информация : UTF-8 Plain Text
Продолжительность : 22 м. 34 с.
Битрейт : 110 бит/сек
ElementCount : 307
Размер потока : 18,3 Кбайт (0%)
Заголовок : Full
Язык : Russian
Default : Нет
Forced : Нет
Текст #3
Идентификатор : 6
Формат : UTF-8
Идентификатор кодека : S_TEXT/UTF8
Идентификатор кодека/Информация : UTF-8 Plain Text
Продолжительность : 21 м. 16 с.
Битрейт : 84 бит/сек
ElementCount : 360
Размер потока : 13,1 Кбайт (0%)
Заголовок : Full SDH
Язык : English
Default : Нет
Forced : Нет
Скриншоты
Download
Для скачивания .torrent файлов необходима регистрация
Сайт не распространяет и не хранит электронные версии произведений, а лишь предоставляет доступ к создаваемому пользователями каталогу ссылок на торрент-файлы, которые содержат только списки хеш-сумм
[Профиль]  [ЛС] 

ZgurVas

Top Bonus 05* 10TB

Стаж: 4 года 11 месяцев

Сообщений: 494

ZgurVas · 09-Май-19 21:27 (спустя 6 часов, ред. 09-Май-19 21:27)

1-й сезон
2-й сезон
Продолжение приключений в Аркадии, но уже других героев https://rutracker.org/forum/viewtopic.php?t=5729878
[Профиль]  [ЛС] 

Ko_R

Стаж: 5 лет

Сообщений: 340

Ko_R · 21-Июл-19 21:44 (спустя 2 месяца 12 дней)

Крутяк !! Всем рекомендую ! Вообще лучший мультсериал !
Огромное спасибо автору раздачи !
Но почему среди режиссёров (в описании) нет Гильермо дель Торо?
И там среди актёров (Роли озвучивали) должен быть Эмиль Хирш, Антон вроде погиб ...
[Профиль]  [ЛС] 
 
Ответить
Loading...
Error