Тука и Берти / Tuca & Bertie / Сезон: 1 / Серии: 1-10 из 10 (Джеймс Боумен, Аарон Лонг / James Bowman, Aaron Long) [2019, США, комедия, WEBRip 1080p] MVO (NewStation) + Original + Sub (Rus, Eng)

Страницы:  1

Ответить
Автор
Сообщение

MiST23

Стаж: 7 лет 11 месяцев

Сообщений: 332

MiST23 · 04-Май-19 21:37 (2 месяца 18 дней назад, ред. 08-Май-19 22:01)

Тука и Берти / Tuca & Bertie
Страна: США
Жанр: Комедия
Продолжительность серии: 1 x ~25 мин.
Год выпуска: 2019
Перевод: Любительский (многоголосый закадровый) NewStation
Режиссёр: Джеймс Боумен, Аарон Лонг / James Bowman, Aaron Long
Роли озвучивали: Тиффани Хэддиш, Али Вонг, Стивен Ян, Николь Байер, Ричард Э. Грант, Джон Ерли, Коул Эскола, Регги Уоттс
Описание: Комедийный сериал расскажет о двух подругах — 30-летних птицах, живущих в одном многоэтажном доме. Тука — беззаботный тукан, любительница вечеринок и праздников. Берти, в свою очередь, скромная певчая птичка, склонная к тревогам и мечтам.

Предыдущие и альтернативные раздачи

Качество: WEBRip 1080p
Формат: MKV
Видео: AVC, 1920x1080 (16:9), ~4220 Kbps, 23,976 fps
Аудио #1: 48 kHz, EAC3, 6ch, ~640 kbps | [RUS]
Аудио #2: 48 kHz, EAC3, 6ch, ~640 kbps | [ENG]
Субтитры: Русские, английские, испанские, французские, немецкие, итальянские, португальские, польские, турецкие, шведские, голландские, финские, норвежские, венгерские, греческие, ивритские, арабские, румынские, чешские, индонезийские, тайские, вьетнамские, японские, корейские, китайские
Подробные технические данные
Общее
Уникальный идентификатор : 56881002771464692041203533979489136170 (0x2ACAE1F560FAA0F96F9EB19812AFEE2A)
Полное имя : F:\NewStation\Tuca.and.Bertie.S01.WEBRip.1080p.NewStation\Tuca.and.Bertie.S01E01.WEBRip.1080p.NewStation.mkv
Формат : Matroska
Версия формата : Version 4 / Version 2
Размер файла : 989 Мбайт
Продолжительность : 25 м. 40 с.
Режим общего битрейта : Переменный
Общий поток : 5384 Кбит/сек
Дата кодирования : UTC 2019-05-04 17:39:28
Программа кодирования : mkvmerge v28.1.0 ('Morning Child') 64-bit
Библиотека кодирования : libebml v1.3.6 + libmatroska v1.4.9
Видео
Идентификатор : 1
Формат : AVC
Формат/Информация : Advanced Video Codec
Профиль формата : [email protected]
Настройки формата : CABAC / 3 Ref Frames
Параметр CABAC формата : Да
Параметр RefFrames формата : 3 кадра
Идентификатор кодека : V_MPEG4/ISO/AVC
Продолжительность : 25 м. 39 с.
Вид битрейта : Переменный
Битрейт : 4220 Кбит/сек
Максимальный битрейт : 6330 Кбит/сек
Ширина : 1920 пикселей
Высота : 1080 пикселей
Соотношение сторон : 16:9
Режим частоты кадров : Постоянный
Частота кадров : 23,976 (24000/1001) кадра/сек
Цветовое пространство : YUV
Субдискретизация насыщенности : 4:2:0
Битовая глубина : 8 бит
Тип развёртки : Прогрессивная
Бит/(Пиксели*Кадры) : 0.085
Размер потока : 752 Мбайт (76%)
Библиотека кодирования : x264 core 148 r2715 7e75228
Настройки программы : cabac=1 / ref=3 / deblock=1:0:0 / analyse=0x1:0x111 / me=umh / subme=10 / psy=1 / psy_rd=1.00:0.00 / mixed_ref=1 / me_range=24 / chroma_me=1 / trellis=2 / 8x8dct=0 / cqm=0 / deadzone=21,11 / fast_pskip=1 / chroma_qp_offset=-2 / threads=8 / lookahead_threads=1 / sliced_threads=0 / nr=0 / decimate=1 / interlaced=0 / bluray_compat=0 / stitchable=1 / constrained_intra=0 / bframes=2 / b_pyramid=0 / b_adapt=2 / b_bias=0 / direct=3 / weightb=1 / open_gop=0 / weightp=2 / keyint=48 / keyint_min=25 / scenecut=0 / intra_refresh=0 / rc_lookahead=48 / rc=2pass / mbtree=1 / bitrate=4220 / ratetol=1.0 / qcomp=0.50 / qpmin=6 / qpmax=51 / qpstep=4 / cplxblur=20.0 / qblur=0.5 / vbv_maxrate=6330 / vbv_bufsize=8440 / nal_hrd=vbr / filler=0 / ip_ratio=1.40 / aq=1:1.00
Default : Да
Forced : Нет
Аудио #1
Идентификатор : 2
Формат : E-AC-3
Формат/Информация : Enhanced Audio Coding 3
Идентификатор кодека : A_EAC3
Продолжительность : 25 м. 40 с.
Вид битрейта : Постоянный
Битрейт : 640 Кбит/сек
Каналы : 6 каналов
Расположение каналов : Front: L C R, Side: L R, LFE
Частота : 48,0 КГц
Частота кадров : 187,500 кадров/сек (256 SPF)
Метод сжатия : С потерями
Размер потока : 118 Мбайт (12%)
Заголовок : NewStation
Язык : Russian
ServiceKind/String : Complete Main
Default : Да
Forced : Нет
Аудио #2
Идентификатор : 3
Формат : E-AC-3
Формат/Информация : Enhanced Audio Coding 3
Идентификатор кодека : A_EAC3
Продолжительность : 25 м. 40 с.
Вид битрейта : Постоянный
Битрейт : 640 Кбит/сек
Каналы : 6 каналов
Расположение каналов : Front: L C R, Side: L R, LFE
Частота : 48,0 КГц
Частота кадров : 187,500 кадров/сек (256 SPF)
Метод сжатия : С потерями
Размер потока : 118 Мбайт (12%)
Заголовок : English
Язык : English
ServiceKind/String : Complete Main
Default : Нет
Forced : Нет
Текст #1
Идентификатор : 4
Формат : UTF-8
Идентификатор кодека : S_TEXT/UTF8
Идентификатор кодека/Информация : UTF-8 Plain Text
Продолжительность : 24 м. 58 с.
Битрейт : 101 бит/сек
ElementCount : 509
Размер потока : 18,5 Кбайт (0%)
Заголовок : English [SDH]
Язык : English
Default : Нет
Forced : Нет
Текст #2
Идентификатор : 5
Формат : UTF-8
Идентификатор кодека : S_TEXT/UTF8
Идентификатор кодека/Информация : UTF-8 Plain Text
Продолжительность : 24 м. 51 с.
Битрейт : 81 бит/сек
ElementCount : 444
Размер потока : 14,7 Кбайт (0%)
Заголовок : Castilian [Full]
Язык : Spanish
Default : Нет
Forced : Нет
Текст #3
Идентификатор : 6
Формат : UTF-8
Идентификатор кодека : S_TEXT/UTF8
Идентификатор кодека/Информация : UTF-8 Plain Text
Продолжительность : 24 м. 51 с.
Битрейт : 81 бит/сек
ElementCount : 444
Размер потока : 14,9 Кбайт (0%)
Заголовок : Spanish [Full]
Язык : Spanish
Default : Нет
Forced : Нет
Текст #4
Идентификатор : 7
Формат : UTF-8
Идентификатор кодека : S_TEXT/UTF8
Идентификатор кодека/Информация : UTF-8 Plain Text
Продолжительность : 24 м. 51 с.
Битрейт : 83 бит/сек
ElementCount : 445
Размер потока : 15,2 Кбайт (0%)
Заголовок : French [Full]
Язык : French
Default : Нет
Forced : Нет
Текст #5
Идентификатор : 8
Формат : UTF-8
Идентификатор кодека : S_TEXT/UTF8
Идентификатор кодека/Информация : UTF-8 Plain Text
Продолжительность : 24 м. 51 с.
Битрейт : 79 бит/сек
ElementCount : 407
Размер потока : 14,5 Кбайт (0%)
Заголовок : German [Full]
Язык : German
Default : Нет
Forced : Нет
Текст #6
Идентификатор : 9
Формат : UTF-8
Идентификатор кодека : S_TEXT/UTF8
Идентификатор кодека/Информация : UTF-8 Plain Text
Продолжительность : 24 м. 51 с.
Битрейт : 83 бит/сек
ElementCount : 411
Размер потока : 15,2 Кбайт (0%)
Заголовок : Italian [Full]
Язык : Italian
Default : Нет
Forced : Нет
Текст #7
Идентификатор : 10
Формат : UTF-8
Идентификатор кодека : S_TEXT/UTF8
Идентификатор кодека/Информация : UTF-8 Plain Text
Продолжительность : 24 м. 51 с.
Битрейт : 84 бит/сек
ElementCount : 372
Размер потока : 15,4 Кбайт (0%)
Заголовок : Portuguese [Full]
Язык : Portuguese
Default : Нет
Forced : Нет
Текст #8
Идентификатор : 11
Формат : UTF-8
Идентификатор кодека : S_TEXT/UTF8
Идентификатор кодека/Информация : UTF-8 Plain Text
Продолжительность : 24 м. 50 с.
Битрейт : 83 бит/сек
ElementCount : 428
Размер потока : 15,2 Кбайт (0%)
Заголовок : Brazilian Portuguese [Full]
Язык : Portuguese
Default : Нет
Forced : Нет
Текст #9
Идентификатор : 12
Формат : UTF-8
Идентификатор кодека : S_TEXT/UTF8
Идентификатор кодека/Информация : UTF-8 Plain Text
Продолжительность : 24 м. 51 с.
Битрейт : 75 бит/сек
ElementCount : 427
Размер потока : 13,8 Кбайт (0%)
Заголовок : Polish [Full]
Язык : Polish
Default : Нет
Forced : Нет
Текст #10
Идентификатор : 13
Формат : UTF-8
Идентификатор кодека : S_TEXT/UTF8
Идентификатор кодека/Информация : UTF-8 Plain Text
Продолжительность : 24 м. 51 с.
Битрейт : 84 бит/сек
ElementCount : 403
Размер потока : 15,4 Кбайт (0%)
Заголовок : Turkish [Full]
Язык : Turkish
Default : Нет
Forced : Нет
Текст #11
Идентификатор : 14
Формат : UTF-8
Идентификатор кодека : S_TEXT/UTF8
Идентификатор кодека/Информация : UTF-8 Plain Text
Продолжительность : 24 м. 51 с.
Битрейт : 78 бит/сек
ElementCount : 353
Размер потока : 14,3 Кбайт (0%)
Заголовок : Swedish [Full]
Язык : Swedish
Default : Нет
Forced : Нет
Текст #12
Идентификатор : 15
Формат : UTF-8
Идентификатор кодека : S_TEXT/UTF8
Идентификатор кодека/Информация : UTF-8 Plain Text
Продолжительность : 24 м. 51 с.
Битрейт : 73 бит/сек
ElementCount : 362
Размер потока : 13,4 Кбайт (0%)
Заголовок : Danish [Full]
Язык : Danish
Default : Нет
Forced : Нет
Текст #13
Идентификатор : 16
Формат : UTF-8
Идентификатор кодека : S_TEXT/UTF8
Идентификатор кодека/Информация : UTF-8 Plain Text
Продолжительность : 24 м. 51 с.
Битрейт : 77 бит/сек
ElementCount : 381
Размер потока : 14,0 Кбайт (0%)
Заголовок : Finnish [Full]
Язык : Finnish
Default : Нет
Forced : Нет
Текст #14
Идентификатор : 17
Формат : UTF-8
Идентификатор кодека : S_TEXT/UTF8
Идентификатор кодека/Информация : UTF-8 Plain Text
Продолжительность : 24 м. 51 с.
Битрейт : 64 бит/сек
ElementCount : 317
Размер потока : 11,8 Кбайт (0%)
Заголовок : Dutch [Full]
Язык : Dutch
Default : Нет
Forced : Нет
Текст #15
Идентификатор : 18
Формат : UTF-8
Идентификатор кодека : S_TEXT/UTF8
Идентификатор кодека/Информация : UTF-8 Plain Text
Продолжительность : 24 м. 51 с.
Битрейт : 77 бит/сек
ElementCount : 405
Размер потока : 14,0 Кбайт (0%)
Заголовок : Norwegian [Full]
Язык : Norwegian
Default : Нет
Forced : Нет
Текст #16
Идентификатор : 19
Формат : UTF-8
Идентификатор кодека : S_TEXT/UTF8
Идентификатор кодека/Информация : UTF-8 Plain Text
Продолжительность : 24 м. 51 с.
Битрейт : 116 бит/сек
ElementCount : 449
Размер потока : 21,2 Кбайт (0%)
Заголовок : Russian [Full]
Язык : Russian
Default : Нет
Forced : Нет
Текст #17
Идентификатор : 20
Формат : UTF-8
Идентификатор кодека : S_TEXT/UTF8
Идентификатор кодека/Информация : UTF-8 Plain Text
Продолжительность : 24 м. 51 с.
Битрейт : 83 бит/сек
ElementCount : 449
Размер потока : 15,1 Кбайт (0%)
Заголовок : Hungarian [Full]
Язык : Hungarian
Default : Нет
Forced : Нет
Текст #18
Идентификатор : 21
Формат : UTF-8
Идентификатор кодека : S_TEXT/UTF8
Идентификатор кодека/Информация : UTF-8 Plain Text
Продолжительность : 24 м. 51 с.
Битрейт : 147 бит/сек
ElementCount : 436
Размер потока : 26,8 Кбайт (0%)
Заголовок : Greek [Full]
Язык : Greek
Default : Нет
Forced : Нет
Текст #19
Идентификатор : 22
Формат : UTF-8
Идентификатор кодека : S_TEXT/UTF8
Идентификатор кодека/Информация : UTF-8 Plain Text
Продолжительность : 24 м. 37 с.
Битрейт : 140 бит/сек
ElementCount : 437
Размер потока : 25,4 Кбайт (0%)
Заголовок : Hebrew [Full]
Язык : Hebrew
Default : Нет
Forced : Нет
Текст #20
Идентификатор : 23
Формат : UTF-8
Идентификатор кодека : S_TEXT/UTF8
Идентификатор кодека/Информация : UTF-8 Plain Text
Продолжительность : 24 м. 51 с.
Битрейт : 149 бит/сек
ElementCount : 455
Размер потока : 27,2 Кбайт (0%)
Заголовок : Arabic [Full]
Язык : Arabic
Default : Нет
Forced : Нет
Текст #21
Идентификатор : 24
Формат : UTF-8
Идентификатор кодека : S_TEXT/UTF8
Идентификатор кодека/Информация : UTF-8 Plain Text
Продолжительность : 24 м. 51 с.
Битрейт : 87 бит/сек
ElementCount : 417
Размер потока : 15,9 Кбайт (0%)
Заголовок : Romanian [Full]
Язык : Romanian
Default : Нет
Forced : Нет
Текст #22
Идентификатор : 25
Формат : UTF-8
Идентификатор кодека : S_TEXT/UTF8
Идентификатор кодека/Информация : UTF-8 Plain Text
Продолжительность : 24 м. 51 с.
Битрейт : 76 бит/сек
ElementCount : 451
Размер потока : 13,9 Кбайт (0%)
Заголовок : Czech [Full]
Язык : Czech
Default : Нет
Forced : Нет
Текст #23
Идентификатор : 26
Формат : UTF-8
Идентификатор кодека : S_TEXT/UTF8
Идентификатор кодека/Информация : UTF-8 Plain Text
Продолжительность : 24 м. 51 с.
Битрейт : 79 бит/сек
ElementCount : 447
Размер потока : 14,5 Кбайт (0%)
Заголовок : Indonesian [Full]
Язык : Indonesian
Default : Нет
Forced : Нет
Текст #24
Идентификатор : 27
Формат : UTF-8
Идентификатор кодека : S_TEXT/UTF8
Идентификатор кодека/Информация : UTF-8 Plain Text
Продолжительность : 24 м. 51 с.
Битрейт : 116 бит/сек
ElementCount : 446
Размер потока : 21,2 Кбайт (0%)
Заголовок : Vietnamese [Full]
Язык : Vietnamese
Default : Нет
Forced : Нет
Текст #25
Идентификатор : 28
Формат : UTF-8
Идентификатор кодека : S_TEXT/UTF8
Идентификатор кодека/Информация : UTF-8 Plain Text
Продолжительность : 24 м. 51 с.
Битрейт : 200 бит/сек
ElementCount : 454
Размер потока : 36,5 Кбайт (0%)
Заголовок : Thai [Full]
Язык : Thai
Default : Нет
Forced : Нет
Текст #26
Идентификатор : 29
Формат : UTF-8
Идентификатор кодека : S_TEXT/UTF8
Идентификатор кодека/Информация : UTF-8 Plain Text
Продолжительность : 24 м. 51 с.
Битрейт : 111 бит/сек
ElementCount : 457
Размер потока : 20,2 Кбайт (0%)
Заголовок : Korean [Full]
Язык : Korean
Default : Нет
Forced : Нет
Текст #27
Идентификатор : 30
Формат : UTF-8
Идентификатор кодека : S_TEXT/UTF8
Идентификатор кодека/Информация : UTF-8 Plain Text
Продолжительность : 24 м. 51 с.
Битрейт : 85 бит/сек
ElementCount : 454
Размер потока : 15,5 Кбайт (0%)
Заголовок : Chinese (Simplified) [Full]
Язык : Chinese
Default : Нет
Forced : Нет
Текст #28
Идентификатор : 31
Формат : UTF-8
Идентификатор кодека : S_TEXT/UTF8
Идентификатор кодека/Информация : UTF-8 Plain Text
Продолжительность : 24 м. 48 с.
Битрейт : 90 бит/сек
ElementCount : 454
Размер потока : 16,4 Кбайт (0%)
Заголовок : Chinese (Traditional) [Full]
Язык : Chinese
Default : Нет
Forced : Нет
Текст #29
Идентификатор : 32
Формат : UTF-8
Идентификатор кодека : S_TEXT/UTF8
Идентификатор кодека/Информация : UTF-8 Plain Text
Продолжительность : 24 м. 51 с.
Битрейт : 78 бит/сек
ElementCount : 466
Размер потока : 14,2 Кбайт (0%)
Заголовок : Japanese [Full]
Язык : Japanese
Default : Нет
Forced : Нет
Скриншоты
Download
Для скачивания .torrent файлов необходима регистрация
Сайт не распространяет и не хранит электронные версии произведений, а лишь предоставляет доступ к создаваемому пользователями каталогу ссылок на торрент-файлы, которые содержат только списки хеш-сумм
[Профиль]  [ЛС] 

SergPepper

Стаж: 10 лет 8 месяцев

Сообщений: 176

SergPepper · 05-Май-19 02:00 (спустя 4 часа)

друг, грецкие могут быть только орехи, а язык - греческий)))
[Профиль]  [ЛС] 

xinatanil

Стаж: 4 года 3 месяца

Сообщений: 5


xinatanil · 05-Май-19 13:49 (спустя 11 часов)

Спасибо! А когда ещё новые серии будут?
[Профиль]  [ЛС] 

MiST23

Стаж: 7 лет 11 месяцев

Сообщений: 332

MiST23 · 08-Май-19 22:04 (спустя 3 дня, ред. 08-Май-19 22:04)

xinatanil писал(а):
77321292Спасибо! А когда ещё новые серии будут?
Постараемся каждый день выпускать.
Добавлена 2-3 серии.
Добавлена 4-6 серии.
Добавлена 7-10 серии. Финал сезона.
[Профиль]  [ЛС] 

Mflopp

Стаж: 9 лет 4 месяца

Сообщений: 86


Mflopp · 15-Май-19 21:26 (спустя 6 дней)

Судя по постеру за это творение ответственны авторы Bojack Horseman...лады, посмотрим...
За раздачу спасибо!
[Профиль]  [ЛС] 

lyum1

Стаж: 3 года 9 месяцев

Сообщений: 1


lyum1 · 23-Май-19 15:44 (спустя 7 дней)

блин, на сайте, где смотрю онлайн есть хороший дубляж, почему его на торрент не залили то(
[Профиль]  [ЛС] 

Bert Bert

Стаж: 9 лет 2 месяца

Сообщений: 2


Bert Bert · 23-Июн-19 22:57 (спустя 1 месяц)

lyum1 писал(а):
77419234блин, на сайте, где смотрю онлайн есть хороший дубляж, почему его на торрент не залили то(
чей дубляж то??
[Профиль]  [ЛС] 

Amido

Стаж: 13 лет 2 месяца

Сообщений: 51


Amido · 26-Июн-19 19:10 (спустя 2 дня 20 часов)

Мультях - АГОНЬ!!!
[Профиль]  [ЛС] 
 
Ответить
Loading...
Error