Нас пятеро / Party of Five / Сезон: 6 / Серии: 1-24 из 24 (Стивен Робмен, Кен Толопски, Дэниэл Эттиэс) [1999-2000, США, драма, мелодрама, семейный, WEB-DL-AVC] Original + Sub Multi

Страницы:  1

Ответить
Автор
Сообщение

BenderBEST

Стаж: 2 года 3 месяца

Сообщений: 246

BenderBEST · 08-Сен-18 13:01 (3 месяца 10 дней назад)

Нас пятеро / Party of Five
Год выпуска: 1999-2000
Страна: США
Жанр: Драма, мелодрама, семейный
Продолжительность: 24 x ~ 00:45:00
Перевод: Субтитры
Режиссёр: Стивен Робмен, Кен Толопски, Дэниэл Эттиэс, Майкл Энглер, Эллен С. Прессман
В ролях: Скотт Вулф, Мэттью Фокс, Нив Кэмпбелл, Лейси Чаберт, Паула Девик, Дженнифер Лав Хьюитт, Джереми Лондон, Скотт Граймз, Эндрю Каварно, Стивен Каварно
Описание: Чарли, Бейли, Джулия, Клодия и Оуэн Селинджер потеряли пол года назад отца и мать в автокатастрофе. Теперь они пытаются научиться жить самостоятельно. А главное, стараются, чтобы их не разлучили.

Качество: WEB-DL 480p (Netflix)
Контейнер: MKV
Видео: MPEG-4 AVC, 640x480 at 23.976 fps, ~ 1600 kbps avg
Аудио: [Английский] AAC, 48 kHz, 6 ch, 96 Kbps
Субтитры: Русские (Full), английские (SDH), Arabic, Bulgarian, Czech, Danish, German, Greek, Spanish, Finnish, French, Hebrew, Hindi, Hungarian, Indonesian, Italian, Japanese, Korean, Norwegian Bokmal, Dutch, Polish, Portuguese, Romanian, Swedish, Thai, Turkish, Ukrainian, Vietnamese, Chinese
Реклама: Отсутствует
Ссылка на предыдущие и альтернативные раздачи
Релиз
Релиз CasStudio - BenderBEST
MediaInfo
Complete name : S:\Party.of.Five.S06.480p.NF.WEB-DL.Rus.Eng_CasStudio\Party.of.Five.S06E01.Dont.Let.Go.480p.NF.WEB-DL.Rus.Eng_CasStudio.mkv
Format : Matroska
Format version : Version 4 / Version 2
File size : 456 MiB
Duration : 43 min 56 s
Overall bit rate mode : Variable
Overall bit rate : 1 452 kb/s
Encoded date : UTC 2018-06-30 23:29:03
Writing application : mkvmerge v24.0.0 ('Beyond The Pale') 64-bit
Writing library : libebml v1.3.6 + libmatroska v1.4.9
Video
ID : 1
Format : AVC
Format/Info : Advanced Video Codec
Format profile : [email protected]
Format settings : 3 Ref Frames
Format settings, CABAC : No
Format settings, RefFrames : 3 frames
Format settings, GOP : M=1, N=48
Codec ID : V_MPEG4/ISO/AVC
Duration : 43 min 56 s
Bit rate mode : Variable
Bit rate : 1 350 kb/s
Maximum bit rate : 2 025 kb/s
Width : 640 pixels
Height : 480 pixels
Display aspect ratio : 4:3
Frame rate mode : Constant
Frame rate : 23.976 (24000/1001) FPS
Color space : YUV
Chroma subsampling : 4:2:0
Bit depth : 8 bits
Scan type : Progressive
Bits/(Pixel*Frame) : 0.183
Stream size : 424 MiB (93%)
Writing library : x264 core 118
Encoding settings : cabac=0 / ref=3 / deblock=1:0:0 / analyse=0x1:0x111 / me=umh / subme=9 / psy=1 / psy_rd=1.00:0.00 / mixed_ref=1 / me_range=24 / chroma_me=1 / trellis=1 / 8x8dct=0 / cqm=0 / deadzone=21,11 / fast_pskip=1 / chroma_qp_offset=-2 / threads=8 / sliced_threads=0 / nr=0 / decimate=1 / interlaced=0 / bluray_compat=0 / constrained_intra=0 / bframes=0 / weightp=0 / keyint=48 / keyint_min=25 / scenecut=0 / intra_refresh=0 / rc_lookahead=0 / rc=2pass / mbtree=1 / bitrate=1350 / ratetol=1.0 / qcomp=0.50 / qpmin=8 / qpmax=51 / qpstep=4 / cplxblur=20.0 / qblur=0.5 / vbv_maxrate=2025 / vbv_bufsize=2700 / nal_hrd=vbr / ip_ratio=1.40 / aq=1:1.00
Default : Yes
Forced : No
Audio
ID : 2
Format : AAC
Format/Info : Advanced Audio Codec
Format profile : HE-AAC / LC
Format settings : Explicit
Codec ID : A_AAC-2
Duration : 43 min 56 s
Bit rate : 96.0 kb/s
Channel(s) : 2 channels
Channel positions : Front: L R
Sampling rate : 48.0 kHz / 24.0 kHz
Frame rate : 23.438 FPS (1024 SPF)
Compression mode : Lossy
Stream size : 30.2 MiB (7%)
Title : English
Language : English
Default : Yes
Forced : No
Text #1
ID : 3
Format : UTF-8
Codec ID : S_TEXT/UTF8
Codec ID/Info : UTF-8 Plain Text
Duration : 42 min 56 s
Bit rate : 90 b/s
Count of elements : 945
Stream size : 28.3 KiB (0%)
Title : SDH
Language : English
Default : Yes
Forced : No
Text #2
ID : 4
Format : UTF-8
Codec ID : S_TEXT/UTF8
Codec ID/Info : UTF-8 Plain Text
Duration : 42 min 48 s
Bit rate : 131 b/s
Count of elements : 799
Stream size : 41.3 KiB (0%)
Language : Arabic
Default : No
Forced : No
Text #3
ID : 5
Format : UTF-8
Codec ID : S_TEXT/UTF8
Codec ID/Info : UTF-8 Plain Text
Duration : 42 min 46 s
Bit rate : 153 b/s
Count of elements : 904
Stream size : 48.0 KiB (0%)
Language : Bulgarian
Default : No
Forced : No
Text #4
ID : 6
Format : UTF-8
Codec ID : S_TEXT/UTF8
Codec ID/Info : UTF-8 Plain Text
Duration : 42 min 56 s
Bit rate : 77 b/s
Count of elements : 606
Stream size : 24.4 KiB (0%)
Language : Czech
Default : No
Forced : No
Text #5
ID : 7
Format : UTF-8
Codec ID : S_TEXT/UTF8
Codec ID/Info : UTF-8 Plain Text
Duration : 42 min 57 s
Bit rate : 65 b/s
Count of elements : 436
Stream size : 20.6 KiB (0%)
Language : Danish
Default : No
Forced : No
Text #6
ID : 8
Format : UTF-8
Codec ID : S_TEXT/UTF8
Codec ID/Info : UTF-8 Plain Text
Duration : 42 min 56 s
Bit rate : 78 b/s
Count of elements : 710
Stream size : 24.8 KiB (0%)
Language : German
Default : No
Forced : No
Text #7
ID : 9
Format : UTF-8
Codec ID : S_TEXT/UTF8
Codec ID/Info : UTF-8 Plain Text
Duration : 42 min 56 s
Bit rate : 122 b/s
Count of elements : 808
Stream size : 38.6 KiB (0%)
Language : Greek
Default : No
Forced : No
Text #8
ID : 10
Format : UTF-8
Codec ID : S_TEXT/UTF8
Codec ID/Info : UTF-8 Plain Text
Duration : 42 min 48 s
Bit rate : 78 b/s
Count of elements : 627
Stream size : 24.7 KiB (0%)
Language : Spanish
Default : No
Forced : No
Text #9
ID : 11
Format : UTF-8
Codec ID : S_TEXT/UTF8
Codec ID/Info : UTF-8 Plain Text
Duration : 42 min 48 s
Bit rate : 70 b/s
Count of elements : 593
Stream size : 22.0 KiB (0%)
Title : European
Language : Spanish
Default : No
Forced : No
Text #10
ID : 12
Format : UTF-8
Codec ID : S_TEXT/UTF8
Codec ID/Info : UTF-8 Plain Text
Duration : 42 min 57 s
Bit rate : 63 b/s
Count of elements : 436
Stream size : 20.0 KiB (0%)
Language : Finnish
Default : No
Forced : No
Text #11
ID : 13
Format : UTF-8
Codec ID : S_TEXT/UTF8
Codec ID/Info : UTF-8 Plain Text
Duration : 42 min 49 s
Bit rate : 77 b/s
Count of elements : 695
Stream size : 24.3 KiB (0%)
Language : French
Default : No
Forced : No
Text #12
ID : 14
Format : UTF-8
Codec ID : S_TEXT/UTF8
Codec ID/Info : UTF-8 Plain Text
Duration : 42 min 56 s
Bit rate : 126 b/s
Count of elements : 808
Stream size : 39.8 KiB (0%)
Language : Hebrew
Default : No
Forced : No
Text #13
ID : 15
Format : UTF-8
Codec ID : S_TEXT/UTF8
Codec ID/Info : UTF-8 Plain Text
Duration : 42 min 56 s
Bit rate : 203 b/s
Count of elements : 798
Stream size : 64.1 KiB (0%)
Language : Hindi
Default : No
Forced : No
Text #14
ID : 16
Format : UTF-8
Codec ID : S_TEXT/UTF8
Codec ID/Info : UTF-8 Plain Text
Duration : 42 min 56 s
Bit rate : 64 b/s
Count of elements : 793
Stream size : 20.2 KiB (0%)
Language : Hungarian
Default : No
Forced : No
Text #15
ID : 17
Format : UTF-8
Codec ID : S_TEXT/UTF8
Codec ID/Info : UTF-8 Plain Text
Duration : 42 min 56 s
Bit rate : 87 b/s
Count of elements : 808
Stream size : 27.6 KiB (0%)
Language : Indonesian
Default : No
Forced : No
Text #16
ID : 18
Format : UTF-8
Codec ID : S_TEXT/UTF8
Codec ID/Info : UTF-8 Plain Text
Duration : 42 min 48 s
Bit rate : 71 b/s
Count of elements : 590
Stream size : 22.4 KiB (0%)
Language : Italian
Default : No
Forced : No
Text #17
ID : 19
Format : UTF-8
Codec ID : S_TEXT/UTF8
Codec ID/Info : UTF-8 Plain Text
Duration : 42 min 47 s
Bit rate : 61 b/s
Count of elements : 686
Stream size : 19.2 KiB (0%)
Language : Japanese
Default : No
Forced : No
Text #18
ID : 20
Format : UTF-8
Codec ID : S_TEXT/UTF8
Codec ID/Info : UTF-8 Plain Text
Duration : 42 min 56 s
Bit rate : 79 b/s
Count of elements : 596
Stream size : 25.0 KiB (0%)
Language : Korean
Default : No
Forced : No
Text #19
ID : 21
Format : UTF-8
Codec ID : S_TEXT/UTF8
Codec ID/Info : UTF-8 Plain Text
Duration : 42 min 57 s
Bit rate : 63 b/s
Count of elements : 436
Stream size : 20.0 KiB (0%)
Language : Norwegian Bokmal
Default : No
Forced : No
Text #20
ID : 22
Format : UTF-8
Codec ID : S_TEXT/UTF8
Codec ID/Info : UTF-8 Plain Text
Duration : 42 min 49 s
Bit rate : 53 b/s
Count of elements : 396
Stream size : 16.8 KiB (0%)
Language : Dutch
Default : No
Forced : No
Text #21
ID : 23
Format : UTF-8
Codec ID : S_TEXT/UTF8
Codec ID/Info : UTF-8 Plain Text
Duration : 42 min 56 s
Bit rate : 68 b/s
Count of elements : 729
Stream size : 21.6 KiB (0%)
Language : Polish
Default : No
Forced : No
Text #22
ID : 24
Format : UTF-8
Codec ID : S_TEXT/UTF8
Codec ID/Info : UTF-8 Plain Text
Duration : 42 min 56 s
Bit rate : 76 b/s
Count of elements : 806
Stream size : 23.9 KiB (0%)
Language : Portuguese
Default : No
Forced : No
Text #23
ID : 25
Format : UTF-8
Codec ID : S_TEXT/UTF8
Codec ID/Info : UTF-8 Plain Text
Duration : 42 min 56 s
Bit rate : 69 b/s
Count of elements : 804
Stream size : 21.9 KiB (0%)
Title : Brazilian
Language : Portuguese
Default : No
Forced : No
Text #24
ID : 26
Format : UTF-8
Codec ID : S_TEXT/UTF8
Codec ID/Info : UTF-8 Plain Text
Duration : 42 min 56 s
Bit rate : 68 b/s
Count of elements : 561
Stream size : 21.5 KiB (0%)
Language : Romanian
Default : No
Forced : No
Text #25
ID : 27
Format : UTF-8
Codec ID : S_TEXT/UTF8
Codec ID/Info : UTF-8 Plain Text
Duration : 42 min 48 s
Bit rate : 104 b/s
Count of elements : 786
Stream size : 32.8 KiB (0%)
Language : Russian
Default : No
Forced : No
Text #26
ID : 28
Format : UTF-8
Codec ID : S_TEXT/UTF8
Codec ID/Info : UTF-8 Plain Text
Duration : 42 min 57 s
Bit rate : 66 b/s
Count of elements : 436
Stream size : 21.0 KiB (0%)
Language : Swedish
Default : No
Forced : No
Text #27
ID : 29
Format : UTF-8
Codec ID : S_TEXT/UTF8
Codec ID/Info : UTF-8 Plain Text
Duration : 42 min 48 s
Bit rate : 173 b/s
Count of elements : 773
Stream size : 54.3 KiB (0%)
Language : Thai
Default : No
Forced : No
Text #28
ID : 30
Format : UTF-8
Codec ID : S_TEXT/UTF8
Codec ID/Info : UTF-8 Plain Text
Duration : 42 min 56 s
Bit rate : 75 b/s
Count of elements : 714
Stream size : 23.7 KiB (0%)
Language : Turkish
Default : No
Forced : No
Text #29
ID : 31
Format : UTF-8
Codec ID : S_TEXT/UTF8
Codec ID/Info : UTF-8 Plain Text
Duration : 42 min 55 s
Bit rate : 86 b/s
Count of elements : 762
Stream size : 27.2 KiB (0%)
Language : Ukrainian
Default : No
Forced : No
Text #30
ID : 32
Format : UTF-8
Codec ID : S_TEXT/UTF8
Codec ID/Info : UTF-8 Plain Text
Duration : 42 min 56 s
Bit rate : 83 b/s
Count of elements : 786
Stream size : 26.4 KiB (0%)
Language : Vietnamese
Default : No
Forced : No
Text #31
ID : 33
Format : UTF-8
Codec ID : S_TEXT/UTF8
Codec ID/Info : UTF-8 Plain Text
Duration : 42 min 56 s
Bit rate : 73 b/s
Count of elements : 778
Stream size : 23.0 KiB (0%)
Title : Simplified
Language : Chinese
Default : No
Forced : No
Text #32
ID : 34
Format : UTF-8
Codec ID : S_TEXT/UTF8
Codec ID/Info : UTF-8 Plain Text
Duration : 42 min 56 s
Bit rate : 74 b/s
Count of elements : 783
Stream size : 23.6 KiB (0%)
Title : Traditional
Language : Chinese
Default : No
Forced : No
Скриншоты
Download
Для скачивания .torrent файлов необходима регистрация
Сайт не распространяет и не хранит электронные версии произведений, а лишь предоставляет доступ к создаваемому пользователями каталогу ссылок на торрент-файлы, которые содержат только списки хеш-сумм
[Профиль]  [ЛС] 

LegendKiev

VIP (Заслуженный)

Стаж: 8 лет 1 месяц

Сообщений: 9280

LegendKiev · 14-Сен-18 10:54 (спустя 5 дней)

[Цитировать] 

BenderBEST
Если перевод субтитры, то первыми и по умолчанию должны быть выставлены русские субтитры.
Цитата:
Субтитры: Русские (Full), английские (SDH)
Цитата:
Text #1
Language : English
Default : Yes
Forced : No
Text #25
Language : Russian
Default : No
Forced : No
Инфы в описании по другим субтитрам в раздаче нет.
Ну и баннер, конечно, тоже заменить придется, чтобы был без домена.
[Профиль]  [ЛС] 

Wentworth_Miller

Помощник модератора

Стаж: 9 лет 9 месяцев

Сообщений: 5766

Wentworth_Miller · 26-Сен-18 21:15 (спустя 12 дней)

[Цитировать] 

У вас английские субтитры идут первыми и стоят по умолчанию, должны стоять русские.
# Сомнительно

[Профиль]  [ЛС] 

bot · 26-Сен-18 21:43 (спустя 27 мин.)

Тема была перенесена из форума Зарубежные сериалы в форум Сериалы США и Канады
Wentworth_Miller
 
 
Ответить
Loading...
Error