Tarja Turunen - Act II [2018, Symphonic Metal, 2xBD=>3xDVD9+DVD5]

Страницы:  1

Ответить
Автор
Сообщение

CHKA1961

Moderator gray

Стаж: 11 лет 5 месяцев

Сообщений: 6905

CHKA1961 · 07-Авг-18 07:24 (4 месяца 9 дней назад, ред. 13-Сен-18 13:04)

Tarja Turunen - Act II
Страна: Finland
Жанр: Symphonic Metal
Продолжительность: 01:15:14+01:43:13+(00:32:24+00:41:09)+01:58:17
Год выпуска: 2018
Описание: Following up the worldwide top 10 video chart success “Act I”, Tarja and earMUSIC are happy to announce the release of the long-awaited follow up “Act II” this summer.
Filmed during Tarja’s world tour “The Shadow Shows”, during which the influential heavy rock singer circled the world for 7 ½ times with over 300.000 km travelled and played over 200 shows in 40 countries in front of 1 million people.
“Act II” consists of the singer’s very intimate set filmed and recorded live at the Metropolis Studio in London, UK and the breathtaking live performance of one of her shows in Milan, Italy, as well as previously unreleased interviews and photo galleries.
The theatrical rock adventure “Act II” combines two incredible, yet slightly different live performances on video:
The first chapter, “Metropolis Alive”, has been filmed two months prior to the release of Tarja’s 2016 success “The Shadow Self”. Twenty (20) winners from all over Europe were lucky to witness Tarja’s intimate, yet rocking 75 minute set at renowned Metropolis Studios in London, UK where the singer performed songs from her then unreleased album – for the first time in front of an audience.
“Act II’s” second chapter has been recorded on November 29th, 2016 at the magnificent Teatro della Luna in Milan, Italy and includes hits from all four Tarja albums such as “Innocence”, “Die Alive”, “Until My Last Breath” as well as an incredible cover of Muse’s classic “Supremacy”. That night’s set list also enchants the soprano’s long-time fans with a medley consisting of the distinctive Nightwish evergreens “Ever Dream”, “Slaying The Dreamer” and “The Riddler”. All topped off with a remarkable acoustic set which presents Tarja classics in a brand new way.
Even though the shows deliberately differ in look, sound, approach to the music and adrenalin, both have one thing in common: from the very first to the very last tune, the state of the art production displays Tarja’s energetic performance and her graceful, charming presence.
“Live videos became more and more mere documentations focusing on a band’s performance in a remote, distant and technical way. The lightshow and the LED’s only support the band’s performance but have no significance of their own.
With “Act II” it is different. Here everything has a significance, every little detail is important because it is not only a live-recording, a live-documentation.
In the video, every song was treated in order to transport the feeling I wanted to express live at the show. As close as possible to the way the audience might have felt it that night. We used additional footages, used video snippets, photos and graphics and worked with lights, framings and reflections, changed colours and created moods, distorted pictures and inserted slides. And sometimes we kept the pure picture because itself it transported everything we wanted.
“Act II” is not a live-video, it is a live-art-video and you are free to discuss it very controversially; which is exactly what I want.”
“Act I”, Tarja’s first ever live release, charted Top 10 all over Europe as well as almost all over the world, with a sensational #5 in Germany's General Charts. The video version even remained for over two months at the peak of the Finnish music video charts.
“Act II” keeps the energy and aesthetics of its predecessor, but adds a new chapter to the live saga in a brand new way.
“Turn of the lights, volume up and dive into the show!” - Tarja
Доп. информация: Исходники Blu-ray (Спасибо anbelk27) и Blu-ray2 (Спасибо Alexey1204)
Меню анимированное, созданное на основе исходного.
Полученный результат проверен на работоспособность на софтовом Media Player Classic Home Cinema, записан на болванку с помощью ImgBurn и вновь проверен уже на бытовом плеере.
Релиз:
Программы, использованные при создании этого релиза
Демуксинг
eac3to
HdBrStreamExtractor
Обработка видео
DGDecodeNV
AviSynth
Rhozet Carbon Coder
Обработка аудио
Audacity
DTS-HD Master Audio Suite
Создание меню
SnagIt
AviSynth
Rhozet Carbon Coder
Авторинг и проверка
MPEG Video Wizard DVD
Muxman
DVD-lab PRO
DvdReMakePro

Скрипт
LoadPlugin("C:\folders\DCDecNV2050\DGDecodeNV.dll")
DGSource("G:\Tarja\L1\2_2_video.dgi")
LoadPlugin("C:\Program Files (x86)\AviSynth 2.5\plugins\AutoYUY2.dll")
AutoYUY2()
LoadPlugin("C:\Program Files (x86)\AviSynth 2.5\plugins\ColorMatrix.dll")
ColorMatrix(mode="Rec.709->Rec.601", inputFR=false, clamp=0)
BicubicResize(720, 480, 0, 0.5)
Точка перехода
Копипастерам

Уважаемые, имеете желание и возможность далее распространить сие творение по просторам сети? Я совсем не жадный и манией собственности не страдаю. Конечно можно этот релиз заливать и на других трекерах и файлообменниках, после 100% скачивания.
Только будьте любезны уважать чужой труд и соблюдать правила приличия. Пожалуйста указывайте источник. Мой ник указывать не надо. Необходимо в описании добавить наш банер или сослаться на ресурс.
Код:
[b]Релиз:[/b] [img]http://s60.radikal.ru/i168/1103/b2/7817dead5b2b.gif[/img]
Код:
[b]Релиз: RG BD/HD > DVD (Custom) & Music Video Group Рутрекера[/b]
DVD1
Треклист: Filmed at Metropolis Studios, London, UK, 6th of June 2016
1. No Bitter End
2. Eagle Eye
3. Sing For Me
4. Love To Hate
5. The Living End
6. Medusa
7. Calling From The Wild
8. Victim Of Ritual
9. Die Alive
10. Innocence
11. Until My Last Breath
12. Too Many
Разбивка на главы по трекам: есть
Качество : BD=>DVD9
Формат: DVD video
Видео кодек: MPEG2
Аудио кодек: PCM; DTS
Видео: NTSC 16:9 (720x480p) VBR, Auto Letterboxed, ~6680(6800) Kbps, 23.976 fps
Аудио: English (LinearPCM, 2 ch) 1536 Kbps
Аудио2: English (DTS, 6 ch) 1510 Kbps
DVDinfo+MI
Title: DVD1
Size: 5.32 Gb ( 5 578 310,00 KBytes ) - DVD-9
Enabled regions: 1, 2, 3, 4, 5, 6, 7, 8
VTS_01 :
Play Length: 01:15:14
Video: NTSC 16:9 (720x480) VBR, Auto Letterboxed
Audio:
English, LPCM, Delay = 0 mSec
English, DTS, 3/2 (L,C,R,SL,SR), 1536 kbps, Delay 0 mSec
* Menus Information *
VIDEO_TS Menu
Video:
NTSC 16:9 (720x480) VBR
Auto Letterboxed
Audio:
Not specified (Dolby AC3, 2 ch)
English Language Unit :
Title Menu
VTS_01 Menu
Video:
NTSC 16:9 (720x480) VBR
Auto Letterboxed
Audio:
Not specified (Dolby AC3, 2 ch)
English Language Unit :
Root Menu
General
Complete name : D:\Downloads\Tarja Turunen - Act II\DVD1\VIDEO_TS\VIDEO_TS.BUP
Format : DVD Video
Format profile : Menu
File size : 12.0 KiB
Overall bit rate mode : Variable
Video
ID : 224 (0xE0)
Format : MPEG Video
Format version : Version 2
Bit rate mode : Variable
Width : 720 pixels
Height : 480 pixels
Display aspect ratio : 16:9
Frame rate : 29.970 fps
Standard : NTSC
Compression mode : Lossy
Audio
Format : AC-3
Format/Info : Audio Coding 3
Channel(s) : 2 channels
Sampling rate : 48.0 KHz
Compression mode : Lossy
Text
Format : RLE
Format/Info : Run-length encoding
Bit depth : 2 bits
General
Complete name : D:\Downloads\Tarja Turunen - Act II\DVD1\VIDEO_TS\VIDEO_TS.IFO
Format : DVD Video
Format profile : Menu
File size : 12.0 KiB
Overall bit rate mode : Variable
Video
ID : 224 (0xE0)
Format : MPEG Video
Format version : Version 2
Bit rate mode : Variable
Width : 720 pixels
Height : 480 pixels
Display aspect ratio : 16:9
Frame rate : 29.970 fps
Standard : NTSC
Compression mode : Lossy
Audio
Format : AC-3
Format/Info : Audio Coding 3
Channel(s) : 2 channels
Sampling rate : 48.0 KHz
Compression mode : Lossy
Text
Format : RLE
Format/Info : Run-length encoding
Bit depth : 2 bits
General
Complete name : D:\Downloads\Tarja Turunen - Act II\DVD1\VIDEO_TS\VIDEO_TS.VOB
Format : MPEG-PS
File size : 24.6 MiB
Duration : 32s 466ms
Overall bit rate mode : Variable
Overall bit rate : 6 356 Kbps
Writing library : (c) 1998-2009 Womble Multimedia, Inc. / MPEG Video Wizard (03/2009) / Jun 24 2009
Video
ID : 224 (0xE0)
Format : MPEG Video
Format version : Version 2
Format profile : [email protected]
Format settings, BVOP : Yes
Format settings, Matrix : Default
Format settings, GOP : M=3, N=15
Duration : 32s 466ms
Bit rate mode : Variable
Bit rate : 6 038 Kbps
Maximum bit rate : 8 000 Kbps
Width : 720 pixels
Height : 480 pixels
Display aspect ratio : 16:9
Frame rate : 29.970 fps
Standard : NTSC
Color space : YUV
Chroma subsampling : 4:2:0
Bit depth : 8 bits
Scan type : Progressive
Compression mode : Lossy
Bits/(Pixel*Frame) : 0.583
Time code of first frame : 00:00:00;00
Time code source : Group of pictures header
Stream size : 23.4 MiB (95%)
Writing library : (c) 1998-2009 Womble Multimedia, Inc. / MPEG Video Wizard (03/2009) / Jun 24 2009
Audio
ID : 189 (0xBD)-128 (0x80)
Format : AC-3
Format/Info : Audio Coding 3
Mode extension : CM (complete main)
Format settings, Endianness : Big
Muxing mode : DVD-Video
Duration : 32s 352ms
Bit rate mode : Constant
Bit rate : 192 Kbps
Channel(s) : 2 channels
Channel positions : Front: L R
Sampling rate : 48.0 KHz
Bit depth : 16 bits
Compression mode : Lossy
Stream size : 758 KiB (3%)
Text #1
ID : 189 (0xBD)-32 (0x20)
Format : RLE
Format/Info : Run-length encoding
Muxing mode : DVD-Video
Text #2
ID : 189 (0xBD)-34 (0x22)
Format : RLE
Format/Info : Run-length encoding
Muxing mode : DVD-Video
Menu
General
Complete name : D:\Downloads\Tarja Turunen - Act II\DVD1\VIDEO_TS\VTS_01_0.BUP
Format : DVD Video
Format profile : Program
File size : 56.0 KiB
Duration : 1h 15mn
Overall bit rate mode : Variable
Overall bit rate : 102 bps
Video
ID : 224 (0xE0)
Format : MPEG Video
Format version : Version 2
Duration : 1h 15mn
Bit rate mode : Variable
Width : 720 pixels
Height : 480 pixels
Display aspect ratio : 16:9
Frame rate : 29.970 fps
Standard : NTSC
Compression mode : Lossy
Audio #1
ID : 0 (0x0)
Format : PCM
Duration : 1h 15mn
Channel(s) : 2 channels
Sampling rate : 48.0 KHz
Language : English
Audio #2
ID : 137 (0x89)
Format : DTS
Format/Info : Digital Theater Systems
Duration : 1h 15mn
Channel(s) : 6 channels
Sampling rate : 48.0 KHz
Compression mode : Lossy
Language : English
Menu
Duration : 1h 15mn
00:00:00.000 : Chapter 1
00:01:03.366 : Chapter 2
00:06:30.666 : Chapter 3
00:11:19.866 : Chapter 4
00:16:09.832 : Chapter 5
00:22:25.065 : Chapter 6
00:27:22.231 : Chapter 7
00:38:03.231 : Chapter 8
00:43:33.064 : Chapter 9
00:49:34.230 : Chapter 10
00:54:38.330 : Chapter 11
00:59:40.963 : Chapter 12
01:05:32.129 : Chapter 13
01:15:13.529 : Chapter 14
List (Audio) : 0 / 1
General
Complete name : D:\Downloads\Tarja Turunen - Act II\DVD1\VIDEO_TS\VTS_01_0.IFO
Format : DVD Video
Format profile : Program
File size : 56.0 KiB
Duration : 1h 15mn
Overall bit rate mode : Variable
Overall bit rate : 102 bps
Video
ID : 224 (0xE0)
Format : MPEG Video
Format version : Version 2
Duration : 1h 15mn
Bit rate mode : Variable
Width : 720 pixels
Height : 480 pixels
Display aspect ratio : 16:9
Frame rate : 29.970 fps
Standard : NTSC
Compression mode : Lossy
Audio #1
ID : 0 (0x0)
Format : PCM
Duration : 1h 15mn
Channel(s) : 2 channels
Sampling rate : 48.0 KHz
Language : English
Audio #2
ID : 137 (0x89)
Format : DTS
Format/Info : Digital Theater Systems
Duration : 1h 15mn
Channel(s) : 6 channels
Sampling rate : 48.0 KHz
Compression mode : Lossy
Language : English
Menu
Duration : 1h 15mn
00:00:00.000 : Chapter 1
00:01:03.366 : Chapter 2
00:06:30.666 : Chapter 3
00:11:19.866 : Chapter 4
00:16:09.832 : Chapter 5
00:22:25.065 : Chapter 6
00:27:22.231 : Chapter 7
00:38:03.231 : Chapter 8
00:43:33.064 : Chapter 9
00:49:34.230 : Chapter 10
00:54:38.330 : Chapter 11
00:59:40.963 : Chapter 12
01:05:32.129 : Chapter 13
01:15:13.529 : Chapter 14
List (Audio) : 0 / 1
General
Complete name : D:\Downloads\Tarja Turunen - Act II\DVD1\VIDEO_TS\VTS_01_0.VOB
Format : MPEG-PS
File size : 84.5 MiB
Duration : 1mn 15s
Overall bit rate mode : Variable
Overall bit rate : 9 413 Kbps
Writing library : (c) 1998-2009 Womble Multimedia, Inc. / MPEG Video Wizard (03/2009) / Jun 24 2009
Video
ID : 224 (0xE0)
Format : MPEG Video
Format version : Version 2
Format profile : [email protected]
Format settings, BVOP : Yes
Format settings, Matrix : Default
Format settings, GOP : M=3, N=15
Duration : 1mn 15s
Bit rate mode : Variable
Bit rate : 9 034 Kbps
Maximum bit rate : 8 500 Kbps
Width : 720 pixels
Height : 480 pixels
Display aspect ratio : 16:9
Frame rate : 29.970 fps
Standard : NTSC
Color space : YUV
Chroma subsampling : 4:2:0
Bit depth : 8 bits
Scan type : Progressive
Compression mode : Lossy
Bits/(Pixel*Frame) : 0.872
Time code of first frame : 00:00:00:00
Time code source : Group of pictures header
Stream size : 81.1 MiB (96%)
Writing library : (c) 1998-2009 Womble Multimedia, Inc. / MPEG Video Wizard (03/2009) / Jun 24 2009
Color primaries : BT.470 System M
Transfer characteristics : BT.470 System M
Matrix coefficients : BT.601
Audio
ID : 189 (0xBD)-128 (0x80)
Format : AC-3
Format/Info : Audio Coding 3
Mode extension : CM (complete main)
Format settings, Endianness : Big
Muxing mode : DVD-Video
Duration : 1mn 15s
Bit rate mode : Constant
Bit rate : 192 Kbps
Channel(s) : 2 channels
Channel positions : Front: L R
Sampling rate : 48.0 KHz
Bit depth : 16 bits
Compression mode : Lossy
Stream size : 1.72 MiB (2%)
Text #1
ID : 189 (0xBD)-32 (0x20)
Format : RLE
Format/Info : Run-length encoding
Muxing mode : DVD-Video
Text #2
ID : 189 (0xBD)-34 (0x22)
Format : RLE
Format/Info : Run-length encoding
Muxing mode : DVD-Video
Menu
General
Complete name : D:\Downloads\Tarja Turunen - Act II\DVD1\VIDEO_TS\VTS_01_1.VOB
Format : MPEG-PS
File size : 1 024 MiB
Duration : 14mn 25s
Overall bit rate mode : Variable
Overall bit rate : 9 927 Kbps
Video
ID : 224 (0xE0)
Format : MPEG Video
Format version : Version 2
Format profile : [email protected]
Format settings, BVOP : Yes
Format settings, Matrix : Custom
Format settings, GOP : Variable
Duration : 14mn 25s
Bit rate mode : Variable
Bit rate : 6 684 Kbps
Maximum bit rate : 6 800 Kbps
Width : 720 pixels
Height : 480 pixels
Display aspect ratio : 16:9
Frame rate : 23.976 fps
Standard : NTSC
Color space : YUV
Chroma subsampling : 4:2:0
Bit depth : 8 bits
Scan type : Progressive
Scan order : 2:3 Pulldown
Compression mode : Lossy
Bits/(Pixel*Frame) : 0.807
Time code of first frame : 00:00:00:00
Time code source : Group of pictures header
Stream size : 689 MiB (67%)
Audio #1
ID : 189 (0xBD)-137 (0x89)
Format : DTS
Format/Info : Digital Theater Systems
Mode : 16
Format settings, Endianness : Big
Muxing mode : DVD-Video
Duration : 14mn 24s
Bit rate mode : Constant
Bit rate : 1 510 Kbps
Channel(s) : 6 channels
Channel positions : Front: L C R, Side: L R, LFE
Sampling rate : 48.0 KHz
Bit depth : 24 bits
Compression mode : Lossy
Stream size : 156 MiB (15%)
Audio #2
ID : 189 (0xBD)-160 (0xA0)
Format : PCM
Format settings, Endianness : Big
Format settings, Sign : Signed
Muxing mode : DVD-Video
Duration : 14mn 24s
Bit rate mode : Constant
Bit rate : 1 536 Kbps
Channel(s) : 2 channels
Sampling rate : 48.0 KHz
Bit depth : 16 bits
Stream size : 158 MiB (15%)
Menu
General
Complete name : D:\Downloads\Tarja Turunen - Act II\DVD1\VIDEO_TS\VTS_01_2.VOB
Format : MPEG-PS
File size : 1 024 MiB
Duration : 14mn 28s
Overall bit rate mode : Variable
Overall bit rate : 9 895 Kbps
Video
ID : 224 (0xE0)
Format : MPEG Video
Format version : Version 2
Format profile : [email protected]
Format settings, BVOP : Yes
Format settings, Matrix : Custom
Format settings, GOP : Variable
Duration : 14mn 27s
Bit rate mode : Variable
Bit rate : 6 652 Kbps
Maximum bit rate : 6 800 Kbps
Width : 720 pixels
Height : 480 pixels
Display aspect ratio : 16:9
Frame rate : 23.976 fps
Standard : NTSC
Color space : YUV
Chroma subsampling : 4:2:0
Bit depth : 8 bits
Scan type : Progressive
Scan order : 2:3 Pulldown
Compression mode : Lossy
Bits/(Pixel*Frame) : 0.803
Time code of first frame : 00:14:24:25
Time code source : Group of pictures header
Stream size : 688 MiB (67%)
Audio #1
ID : 189 (0xBD)-137 (0x89)
Format : DTS
Format/Info : Digital Theater Systems
Mode : 16
Format settings, Endianness : Big
Muxing mode : DVD-Video
Duration : 14mn 28s
Bit rate mode : Constant
Bit rate : 1 510 Kbps
Channel(s) : 6 channels
Channel positions : Front: L C R, Side: L R, LFE
Sampling rate : 48.0 KHz
Bit depth : 24 bits
Compression mode : Lossy
Delay relative to video : -789ms
Stream size : 156 MiB (15%)
Audio #2
ID : 189 (0xBD)-160 (0xA0)
Format : PCM
Format settings, Endianness : Big
Format settings, Sign : Signed
Muxing mode : DVD-Video
Duration : 14mn 28s
Bit rate mode : Constant
Bit rate : 1 536 Kbps
Channel(s) : 2 channels
Sampling rate : 48.0 KHz
Bit depth : 16 bits
Delay relative to video : -793ms
Stream size : 159 MiB (16%)
Menu
General
Complete name : D:\Downloads\Tarja Turunen - Act II\DVD1\VIDEO_TS\VTS_01_3.VOB
Format : MPEG-PS
File size : 1 024 MiB
Duration : 14mn 24s
Overall bit rate mode : Variable
Overall bit rate : 9 938 Kbps
Video
ID : 224 (0xE0)
Format : MPEG Video
Format version : Version 2
Format profile : [email protected]
Format settings, BVOP : Yes
Format settings, Matrix : Custom
Format settings, GOP : Variable
Duration : 14mn 23s
Bit rate mode : Variable
Bit rate : 6 695 Kbps
Maximum bit rate : 6 800 Kbps
Width : 720 pixels
Height : 480 pixels
Display aspect ratio : 16:9
Frame rate : 23.976 fps
Standard : NTSC
Color space : YUV
Chroma subsampling : 4:2:0
Bit depth : 8 bits
Scan type : Progressive
Scan order : 2:3 Pulldown
Compression mode : Lossy
Bits/(Pixel*Frame) : 0.808
Time code of first frame : 00:28:52:04
Time code source : Group of pictures header
Stream size : 689 MiB (67%)
Audio #1
ID : 189 (0xBD)-137 (0x89)
Format : DTS
Format/Info : Digital Theater Systems
Mode : 16
Format settings, Endianness : Big
Muxing mode : DVD-Video
Duration : 14mn 24s
Bit rate mode : Constant
Bit rate : 1 510 Kbps
Channel(s) : 6 channels
Channel positions : Front: L C R, Side: L R, LFE
Sampling rate : 48.0 KHz
Bit depth : 24 bits
Compression mode : Lossy
Delay relative to video : -791ms
Stream size : 156 MiB (15%)
Audio #2
ID : 189 (0xBD)-160 (0xA0)
Format : PCM
Format settings, Endianness : Big
Format settings, Sign : Signed
Muxing mode : DVD-Video
Duration : 14mn 24s
Bit rate mode : Constant
Bit rate : 1 536 Kbps
Channel(s) : 2 channels
Sampling rate : 48.0 KHz
Bit depth : 16 bits
Delay relative to video : -797ms
Stream size : 158 MiB (15%)
Menu
General
Complete name : D:\Downloads\Tarja Turunen - Act II\DVD1\VIDEO_TS\VTS_01_4.VOB
Format : MPEG-PS
File size : 1 024 MiB
Duration : 14mn 23s
Overall bit rate mode : Variable
Overall bit rate : 9 953 Kbps
Video
ID : 224 (0xE0)
Format : MPEG Video
Format version : Version 2
Format profile : [email protected]
Format settings, BVOP : Yes
Format settings, Matrix : Custom
Format settings, GOP : M=3, N=12
Duration : 14mn 22s
Bit rate mode : Variable
Bit rate : 6 709 Kbps
Maximum bit rate : 6 800 Kbps
Width : 720 pixels
Height : 480 pixels
Display aspect ratio : 16:9
Frame rate : 23.976 fps
Standard : NTSC
Color space : YUV
Chroma subsampling : 4:2:0
Bit depth : 8 bits
Scan type : Progressive
Scan order : 2:3 Pulldown
Compression mode : Lossy
Bits/(Pixel*Frame) : 0.810
Time code of first frame : 00:43:15:15
Time code source : Group of pictures header
Stream size : 690 MiB (67%)
Audio #1
ID : 189 (0xBD)-137 (0x89)
Format : DTS
Format/Info : Digital Theater Systems
Mode : 16
Format settings, Endianness : Big
Muxing mode : DVD-Video
Duration : 14mn 23s
Bit rate mode : Constant
Bit rate : 1 510 Kbps
Channel(s) : 6 channels
Channel positions : Front: L C R, Side: L R, LFE
Sampling rate : 48.0 KHz
Bit depth : 24 bits
Compression mode : Lossy
Delay relative to video : -707ms
Stream size : 155 MiB (15%)
Audio #2
ID : 189 (0xBD)-160 (0xA0)
Format : PCM
Format settings, Endianness : Big
Format settings, Sign : Signed
Muxing mode : DVD-Video
Duration : 14mn 23s
Bit rate mode : Constant
Bit rate : 1 536 Kbps
Channel(s) : 2 channels
Sampling rate : 48.0 KHz
Bit depth : 16 bits
Delay relative to video : -715ms
Stream size : 158 MiB (15%)
Menu
General
Complete name : D:\Downloads\Tarja Turunen - Act II\DVD1\VIDEO_TS\VTS_01_5.VOB
Format : MPEG-PS
File size : 1 024 MiB
Duration : 14mn 25s
Overall bit rate mode : Variable
Overall bit rate : 9 923 Kbps
Video
ID : 224 (0xE0)
Format : MPEG Video
Format version : Version 2
Format profile : [email protected]
Format settings, BVOP : Yes
Format settings, Matrix : Custom
Format settings, GOP : Variable
Duration : 14mn 25s
Bit rate mode : Variable
Bit rate : 6 680 Kbps
Maximum bit rate : 6 800 Kbps
Width : 720 pixels
Height : 480 pixels
Display aspect ratio : 16:9
Frame rate : 23.976 fps
Standard : NTSC
Color space : YUV
Chroma subsampling : 4:2:0
Bit depth : 8 bits
Scan type : Progressive
Scan order : 2:3 Pulldown
Compression mode : Lossy
Bits/(Pixel*Frame) : 0.806
Time code of first frame : 00:57:37:19
Time code source : Group of pictures header
Stream size : 689 MiB (67%)
Audio #1
ID : 189 (0xBD)-137 (0x89)
Format : DTS
Format/Info : Digital Theater Systems
Mode : 16
Format settings, Endianness : Big
Muxing mode : DVD-Video
Duration : 14mn 25s
Bit rate mode : Constant
Bit rate : 1 510 Kbps
Channel(s) : 6 channels
Channel positions : Front: L C R, Side: L R, LFE
Sampling rate : 48.0 KHz
Bit depth : 24 bits
Compression mode : Lossy
Delay relative to video : -614ms
Stream size : 156 MiB (15%)
Audio #2
ID : 189 (0xBD)-160 (0xA0)
Format : PCM
Format settings, Endianness : Big
Format settings, Sign : Signed
Muxing mode : DVD-Video
Duration : 14mn 25s
Bit rate mode : Constant
Bit rate : 1 536 Kbps
Channel(s) : 2 channels
Sampling rate : 48.0 KHz
Bit depth : 16 bits
Delay relative to video : -609ms
Stream size : 159 MiB (15%)
Menu
General
Complete name : D:\Downloads\Tarja Turunen - Act II\DVD1\VIDEO_TS\VTS_01_6.VOB
Format : MPEG-PS
File size : 218 MiB
Duration : 3mn 12s
Overall bit rate mode : Variable
Overall bit rate : 9 529 Kbps
Video
ID : 224 (0xE0)
Format : MPEG Video
Format version : Version 2
Format profile : [email protected]
Format settings, BVOP : Yes
Format settings, Matrix : Custom
Format settings, GOP : M=3, N=12
Duration : 3mn 11s
Bit rate mode : Variable
Bit rate : 6 294 Kbps
Maximum bit rate : 6 800 Kbps
Width : 720 pixels
Height : 480 pixels
Display aspect ratio : 16:9
Frame rate : 23.976 fps
Standard : NTSC
Color space : YUV
Chroma subsampling : 4:2:0
Bit depth : 8 bits
Scan type : Progressive
Scan order : 2:3 Pulldown
Compression mode : Lossy
Bits/(Pixel*Frame) : 0.760
Time code of first frame : 01:12:02:13
Time code source : Group of pictures header
Stream size : 144 MiB (66%)
Audio #1
ID : 189 (0xBD)-137 (0x89)
Format : DTS
Format/Info : Digital Theater Systems
Mode : 16
Format settings, Endianness : Big
Muxing mode : DVD-Video
Duration : 3mn 12s
Bit rate mode : Constant
Bit rate : 1 510 Kbps
Channel(s) : 6 channels
Channel positions : Front: L C R, Side: L R, LFE
Sampling rate : 48.0 KHz
Bit depth : 24 bits
Compression mode : Lossy
Delay relative to video : -636ms
Stream size : 34.6 MiB (16%)
Audio #2
ID : 189 (0xBD)-160 (0xA0)
Format : PCM
Format settings, Endianness : Big
Format settings, Sign : Signed
Muxing mode : DVD-Video
Duration : 3mn 12s
Bit rate mode : Constant
Bit rate : 1 536 Kbps
Channel(s) : 2 channels
Sampling rate : 48.0 KHz
Bit depth : 16 bits
Delay relative to video : -638ms
Stream size : 35.2 MiB (16%)
Скриншоты меню
Скриншоты
DVD2
Треклист: Filmed at Teatro della Luna Assago in Milan, Italy, 29th of November, 2016
1. Against The Odds
2. No Bitter End
3. 500 Letters
4. Eagle Eye
5. Demons In You
6. Lucid Dreamer
7. Shameless
8. The Living End
9. Calling From The Wild
10. Supremacy
11. Tutankhamen – Ever Dream - The Riddler – Slaying the Dreamer
12. Goldfinger
13. Deliverance
14. Until Silence - The Reign - Mystique Voyage - House of Wax - I Walk Alone
15. Love To Hate
16. Victim of Ritual
17. Undertaker
Разбивка на главы по трекам: есть
Качество : BD=>DVD9
Формат: DVD video
Видео кодек: MPEG2
Аудио кодек: PCM; DTS
Видео: NTSC 16:9 (720x480p) VBR, Auto Letterboxed, ~6666(6800) Kbps, 23.976 fps
Аудио: English (LinearPCM, 2 ch) 1536 Kbps
Аудио2: English (DTS, 6 ch) 1510 Kbps
DVDinfo+MI
Title: DVD2
Size: 7.28 Gb ( 7 633 412,00 KBytes ) - DVD-9
Enabled regions: 1, 2, 3, 4, 5, 6, 7, 8
VTS_01 :
Play Length: 01:43:13
Video: NTSC 16:9 (720x480) VBR, Auto Letterboxed
Audio:
English, LPCM, Delay = 0 mSec
English, DTS, 3/2 (L,C,R,SL,SR), 1536 kbps, Delay 0 mSec
* Menus Information *
VIDEO_TS Menu
Video:
NTSC 16:9 (720x480) VBR
Auto Letterboxed
Audio:
Not specified (Dolby AC3, 2 ch)
English Language Unit :
Title Menu
VTS_01 Menu
Video:
NTSC 16:9 (720x480) VBR
Auto Letterboxed
Audio:
Not specified (Dolby AC3, 2 ch)
English Language Unit :
Root Menu
General
Complete name : D:\Downloads\Tarja Turunen - Act II\DVD2\VIDEO_TS\VIDEO_TS.BUP
Format : DVD Video
Format profile : Menu
File size : 12.0 KiB
Overall bit rate mode : Variable
Video
ID : 224 (0xE0)
Format : MPEG Video
Format version : Version 2
Bit rate mode : Variable
Width : 720 pixels
Height : 480 pixels
Display aspect ratio : 16:9
Frame rate : 29.970 fps
Standard : NTSC
Compression mode : Lossy
Audio
Format : AC-3
Format/Info : Audio Coding 3
Channel(s) : 2 channels
Sampling rate : 48.0 KHz
Compression mode : Lossy
Text
Format : RLE
Format/Info : Run-length encoding
Bit depth : 2 bits
General
Complete name : D:\Downloads\Tarja Turunen - Act II\DVD2\VIDEO_TS\VIDEO_TS.IFO
Format : DVD Video
Format profile : Menu
File size : 12.0 KiB
Overall bit rate mode : Variable
Video
ID : 224 (0xE0)
Format : MPEG Video
Format version : Version 2
Bit rate mode : Variable
Width : 720 pixels
Height : 480 pixels
Display aspect ratio : 16:9
Frame rate : 29.970 fps
Standard : NTSC
Compression mode : Lossy
Audio
Format : AC-3
Format/Info : Audio Coding 3
Channel(s) : 2 channels
Sampling rate : 48.0 KHz
Compression mode : Lossy
Text
Format : RLE
Format/Info : Run-length encoding
Bit depth : 2 bits
General
Complete name : D:\Downloads\Tarja Turunen - Act II\DVD2\VIDEO_TS\VIDEO_TS.VOB
Format : MPEG-PS
File size : 24.6 MiB
Duration : 32s 466ms
Overall bit rate mode : Variable
Overall bit rate : 6 356 Kbps
Writing library : (c) 1998-2009 Womble Multimedia, Inc. / MPEG Video Wizard (03/2009) / Jun 24 2009
Video
ID : 224 (0xE0)
Format : MPEG Video
Format version : Version 2
Format profile : [email protected]
Format settings, BVOP : Yes
Format settings, Matrix : Default
Format settings, GOP : M=3, N=15
Duration : 32s 466ms
Bit rate mode : Variable
Bit rate : 6 038 Kbps
Maximum bit rate : 8 000 Kbps
Width : 720 pixels
Height : 480 pixels
Display aspect ratio : 16:9
Frame rate : 29.970 fps
Standard : NTSC
Color space : YUV
Chroma subsampling : 4:2:0
Bit depth : 8 bits
Scan type : Progressive
Compression mode : Lossy
Bits/(Pixel*Frame) : 0.583
Time code of first frame : 00:00:00;00
Time code source : Group of pictures header
Stream size : 23.4 MiB (95%)
Writing library : (c) 1998-2009 Womble Multimedia, Inc. / MPEG Video Wizard (03/2009) / Jun 24 2009
Audio
ID : 189 (0xBD)-128 (0x80)
Format : AC-3
Format/Info : Audio Coding 3
Mode extension : CM (complete main)
Format settings, Endianness : Big
Muxing mode : DVD-Video
Duration : 32s 352ms
Bit rate mode : Constant
Bit rate : 192 Kbps
Channel(s) : 2 channels
Channel positions : Front: L R
Sampling rate : 48.0 KHz
Bit depth : 16 bits
Compression mode : Lossy
Stream size : 758 KiB (3%)
Text #1
ID : 189 (0xBD)-32 (0x20)
Format : RLE
Format/Info : Run-length encoding
Muxing mode : DVD-Video
Text #2
ID : 189 (0xBD)-34 (0x22)
Format : RLE
Format/Info : Run-length encoding
Muxing mode : DVD-Video
Menu
General
Complete name : D:\Downloads\Tarja Turunen - Act II\DVD2\VIDEO_TS\VTS_01_0.BUP
Format : DVD Video
Format profile : Program
File size : 72.0 KiB
Duration : 1h 43mn
Overall bit rate mode : Variable
Overall bit rate : 95 bps
Video
ID : 224 (0xE0)
Format : MPEG Video
Format version : Version 2
Duration : 1h 43mn
Bit rate mode : Variable
Width : 720 pixels
Height : 480 pixels
Display aspect ratio : 16:9
Frame rate : 29.970 fps
Standard : NTSC
Compression mode : Lossy
Audio #1
ID : 0 (0x0)
Format : PCM
Duration : 1h 43mn
Channel(s) : 2 channels
Sampling rate : 48.0 KHz
Language : English
Audio #2
ID : 137 (0x89)
Format : DTS
Format/Info : Digital Theater Systems
Duration : 1h 43mn
Channel(s) : 6 channels
Sampling rate : 48.0 KHz
Compression mode : Lossy
Language : English
Menu
Duration : 1h 43mn
00:00:00.000 : Chapter 1
00:02:40.000 : Chapter 2
00:07:19.466 : Chapter 3
00:11:46.066 : Chapter 4
00:16:29.466 : Chapter 5
00:21:28.499 : Chapter 6
00:28:11.965 : Chapter 7
00:32:12.665 : Chapter 8
00:37:35.765 : Chapter 9
00:46:29.865 : Chapter 10
00:51:34.265 : Chapter 11
00:58:05.231 : Chapter 12
01:03:55.697 : Chapter 13
01:12:19.730 : Chapter 14
01:24:05.163 : Chapter 15
01:30:09.329 : Chapter 16
01:36:18.995 : Chapter 17
01:43:12.828 : Chapter 18
List (Audio) : 0 / 1
General
Complete name : D:\Downloads\Tarja Turunen - Act II\DVD2\VIDEO_TS\VTS_01_0.IFO
Format : DVD Video
Format profile : Program
File size : 72.0 KiB
Duration : 1h 43mn
Overall bit rate mode : Variable
Overall bit rate : 95 bps
Video
ID : 224 (0xE0)
Format : MPEG Video
Format version : Version 2
Duration : 1h 43mn
Bit rate mode : Variable
Width : 720 pixels
Height : 480 pixels
Display aspect ratio : 16:9
Frame rate : 29.970 fps
Standard : NTSC
Compression mode : Lossy
Audio #1
ID : 0 (0x0)
Format : PCM
Duration : 1h 43mn
Channel(s) : 2 channels
Sampling rate : 48.0 KHz
Language : English
Audio #2
ID : 137 (0x89)
Format : DTS
Format/Info : Digital Theater Systems
Duration : 1h 43mn
Channel(s) : 6 channels
Sampling rate : 48.0 KHz
Compression mode : Lossy
Language : English
Menu
Duration : 1h 43mn
00:00:00.000 : Chapter 1
00:02:40.000 : Chapter 2
00:07:19.466 : Chapter 3
00:11:46.066 : Chapter 4
00:16:29.466 : Chapter 5
00:21:28.499 : Chapter 6
00:28:11.965 : Chapter 7
00:32:12.665 : Chapter 8
00:37:35.765 : Chapter 9
00:46:29.865 : Chapter 10
00:51:34.265 : Chapter 11
00:58:05.231 : Chapter 12
01:03:55.697 : Chapter 13
01:12:19.730 : Chapter 14
01:24:05.163 : Chapter 15
01:30:09.329 : Chapter 16
01:36:18.995 : Chapter 17
01:43:12.828 : Chapter 18
List (Audio) : 0 / 1
General
Complete name : D:\Downloads\Tarja Turunen - Act II\DVD2\VIDEO_TS\VTS_01_0.VOB
Format : MPEG-PS
File size : 116 MiB
Duration : 1mn 15s
Overall bit rate mode : Variable
Overall bit rate : 12.9 Mbps
Writing library : (c) 1998-2009 Womble Multimedia, Inc. / MPEG Video Wizard (03/2009) / Jun 24 2009
Video
ID : 224 (0xE0)
Format : MPEG Video
Format version : Version 2
Format profile : [email protected]
Format settings, BVOP : Yes
Format settings, Matrix : Default
Format settings, GOP : M=3, N=15
Duration : 1mn 15s
Bit rate mode : Variable
Bit rate : 12.4 Mbps
Maximum bit rate : 8 500 Kbps
Width : 720 pixels
Height : 480 pixels
Display aspect ratio : 16:9
Frame rate : 29.970 fps
Standard : NTSC
Color space : YUV
Chroma subsampling : 4:2:0
Bit depth : 8 bits
Scan type : Progressive
Compression mode : Lossy
Bits/(Pixel*Frame) : 1.200
Time code of first frame : 00:00:00:00
Time code source : Group of pictures header
Stream size : 112 MiB (97%)
Writing library : (c) 1998-2009 Womble Multimedia, Inc. / MPEG Video Wizard (03/2009) / Jun 24 2009
Color primaries : BT.470 System M
Transfer characteristics : BT.470 System M
Matrix coefficients : BT.601
Audio
ID : 189 (0xBD)-128 (0x80)
Format : AC-3
Format/Info : Audio Coding 3
Mode extension : CM (complete main)
Format settings, Endianness : Big
Muxing mode : DVD-Video
Duration : 1mn 15s
Bit rate mode : Constant
Bit rate : 192 Kbps
Channel(s) : 2 channels
Channel positions : Front: L R
Sampling rate : 48.0 KHz
Bit depth : 16 bits
Compression mode : Lossy
Stream size : 1.72 MiB (1%)
Text #1
ID : 189 (0xBD)-32 (0x20)
Format : RLE
Format/Info : Run-length encoding
Muxing mode : DVD-Video
Text #2
ID : 189 (0xBD)-34 (0x22)
Format : RLE
Format/Info : Run-length encoding
Muxing mode : DVD-Video
Menu
General
Complete name : D:\Downloads\Tarja Turunen - Act II\DVD2\VIDEO_TS\VTS_01_1.VOB
Format : MPEG-PS
File size : 1 024 MiB
Duration : 14mn 28s
Overall bit rate mode : Variable
Overall bit rate : 9 889 Kbps
Video
ID : 224 (0xE0)
Format : MPEG Video
Format version : Version 2
Format profile : [email protected]
Format settings, BVOP : Yes
Format settings, Matrix : Custom
Format settings, GOP : M=3, N=12
Duration : 14mn 28s
Bit rate mode : Variable
Bit rate : 6 646 Kbps
Maximum bit rate : 6 800 Kbps
Width : 720 pixels
Height : 480 pixels
Display aspect ratio : 16:9
Frame rate : 23.976 fps
Standard : NTSC
Color space : YUV
Chroma subsampling : 4:2:0
Bit depth : 8 bits
Scan type : Progressive
Scan order : 2:3 Pulldown
Compression mode : Lossy
Bits/(Pixel*Frame) : 0.802
Time code of first frame : 00:00:00:00
Time code source : Group of pictures header
Stream size : 688 MiB (67%)
Audio #1
ID : 189 (0xBD)-137 (0x89)
Format : DTS
Format/Info : Digital Theater Systems
Mode : 16
Format settings, Endianness : Big
Muxing mode : DVD-Video
Duration : 14mn 28s
Bit rate mode : Constant
Bit rate : 1 510 Kbps
Channel(s) : 6 channels
Channel positions : Front: L C R, Side: L R, LFE
Sampling rate : 48.0 KHz
Bit depth : 24 bits
Compression mode : Lossy
Stream size : 156 MiB (15%)
Audio #2
ID : 189 (0xBD)-160 (0xA0)
Format : PCM
Format settings, Endianness : Big
Format settings, Sign : Signed
Muxing mode : DVD-Video
Duration : 14mn 28s
Bit rate mode : Constant
Bit rate : 1 536 Kbps
Channel(s) : 2 channels
Sampling rate : 48.0 KHz
Bit depth : 16 bits
Stream size : 159 MiB (16%)
Menu
General
Complete name : D:\Downloads\Tarja Turunen - Act II\DVD2\VIDEO_TS\VTS_01_2.VOB
Format : MPEG-PS
File size : 1 024 MiB
Duration : 14mn 30s
Overall bit rate mode : Variable
Overall bit rate : 9 865 Kbps
Video
ID : 224 (0xE0)
Format : MPEG Video
Format version : Version 2
Format profile : [email protected]
Format settings, BVOP : Yes
Format settings, Matrix : Custom
Format settings, GOP : Variable
Duration : 14mn 30s
Bit rate mode : Variable
Bit rate : 6 623 Kbps
Maximum bit rate : 6 800 Kbps
Width : 720 pixels
Height : 480 pixels
Display aspect ratio : 16:9
Frame rate : 23.976 fps
Standard : NTSC
Color space : YUV
Chroma subsampling : 4:2:0
Bit depth : 8 bits
Scan type : Progressive
Scan order : 2:3 Pulldown
Compression mode : Lossy
Bits/(Pixel*Frame) : 0.799
Time code of first frame : 00:14:27:29
Time code source : Group of pictures header
Stream size : 687 MiB (67%)
Audio #1
ID : 189 (0xBD)-137 (0x89)
Format : DTS
Format/Info : Digital Theater Systems
Mode : 16
Format settings, Endianness : Big
Muxing mode : DVD-Video
Duration : 14mn 30s
Bit rate mode : Constant
Bit rate : 1 510 Kbps
Channel(s) : 6 channels
Channel positions : Front: L C R, Side: L R, LFE
Sampling rate : 48.0 KHz
Bit depth : 24 bits
Compression mode : Lossy
Delay relative to video : -496ms
Stream size : 157 MiB (15%)
Audio #2
ID : 189 (0xBD)-160 (0xA0)
Format : PCM
Format settings, Endianness : Big
Format settings, Sign : Signed
Muxing mode : DVD-Video
Duration : 14mn 30s
Bit rate mode : Constant
Bit rate : 1 536 Kbps
Channel(s) : 2 channels
Sampling rate : 48.0 KHz
Bit depth : 16 bits
Delay relative to video : -503ms
Stream size : 159 MiB (16%)
Menu
General
Complete name : D:\Downloads\Tarja Turunen - Act II\DVD2\VIDEO_TS\VTS_01_3.VOB
Format : MPEG-PS
File size : 1 024 MiB
Duration : 14mn 24s
Overall bit rate mode : Variable
Overall bit rate : 9 931 Kbps
Video
ID : 224 (0xE0)
Format : MPEG Video
Format version : Version 2
Format profile : [email protected]
Format settings, BVOP : Yes
Format settings, Matrix : Custom
Format settings, GOP : Variable
Duration : 14mn 24s
Bit rate mode : Variable
Bit rate : 6 688 Kbps
Maximum bit rate : 6 800 Kbps
Width : 720 pixels
Height : 480 pixels
Display aspect ratio : 16:9
Frame rate : 23.976 fps
Standard : NTSC
Color space : YUV
Chroma subsampling : 4:2:0
Bit depth : 8 bits
Scan type : Progressive
Scan order : 2:3 Pulldown
Compression mode : Lossy
Bits/(Pixel*Frame) : 0.807
Time code of first frame : 00:28:58:04
Time code source : Group of pictures header
Stream size : 689 MiB (67%)
Audio #1
ID : 189 (0xBD)-137 (0x89)
Format : DTS
Format/Info : Digital Theater Systems
Mode : 16
Format settings, Endianness : Big
Muxing mode : DVD-Video
Duration : 14mn 24s
Bit rate mode : Constant
Bit rate : 1 510 Kbps
Channel(s) : 6 channels
Channel positions : Front: L C R, Side: L R, LFE
Sampling rate : 48.0 KHz
Bit depth : 24 bits
Compression mode : Lossy
Delay relative to video : -802ms
Stream size : 156 MiB (15%)
Audio #2
ID : 189 (0xBD)-160 (0xA0)
Format : PCM
Format settings, Endianness : Big
Format settings, Sign : Signed
Muxing mode : DVD-Video
Duration : 14mn 24s
Bit rate mode : Constant
Bit rate : 1 536 Kbps
Channel(s) : 2 channels
Sampling rate : 48.0 KHz
Bit depth : 16 bits
Delay relative to video : -800ms
Stream size : 158 MiB (15%)
Menu
General
Complete name : D:\Downloads\Tarja Turunen - Act II\DVD2\VIDEO_TS\VTS_01_4.VOB
Format : MPEG-PS
File size : 1 024 MiB
Duration : 14mn 24s
Overall bit rate mode : Variable
Overall bit rate : 9 941 Kbps
Video
ID : 224 (0xE0)
Format : MPEG Video
Format version : Version 2
Format profile : [email protected]
Format settings, BVOP : Yes
Format settings, Matrix : Custom
Format settings, GOP : Variable
Duration : 14mn 23s
Bit rate mode : Variable
Bit rate : 6 697 Kbps
Maximum bit rate : 6 800 Kbps
Width : 720 pixels
Height : 480 pixels
Display aspect ratio : 16:9
Frame rate : 23.976 fps
Standard : NTSC
Color space : YUV
Chroma subsampling : 4:2:0
Bit depth : 8 bits
Scan type : Progressive
Scan order : 2:3 Pulldown
Compression mode : Lossy
Bits/(Pixel*Frame) : 0.808
Time code of first frame : 00:43:21:29
Time code source : Group of pictures header
Stream size : 690 MiB (67%)
Audio #1
ID : 189 (0xBD)-137 (0x89)
Format : DTS
Format/Info : Digital Theater Systems
Mode : 16
Format settings, Endianness : Big
Muxing mode : DVD-Video
Duration : 14mn 24s
Bit rate mode : Constant
Bit rate : 1 510 Kbps
Channel(s) : 6 channels
Channel positions : Front: L C R, Side: L R, LFE
Sampling rate : 48.0 KHz
Bit depth : 24 bits
Compression mode : Lossy
Delay relative to video : -572ms
Stream size : 156 MiB (15%)
Audio #2
ID : 189 (0xBD)-160 (0xA0)
Format : PCM
Format settings, Endianness : Big
Format settings, Sign : Signed
Muxing mode : DVD-Video
Duration : 14mn 24s
Bit rate mode : Constant
Bit rate : 1 536 Kbps
Channel(s) : 2 channels
Sampling rate : 48.0 KHz
Bit depth : 16 bits
Delay relative to video : -572ms
Stream size : 158 MiB (15%)
Menu
General
Complete name : D:\Downloads\Tarja Turunen - Act II\DVD2\VIDEO_TS\VTS_01_5.VOB
Format : MPEG-PS
File size : 1 024 MiB
Duration : 14mn 33s
Overall bit rate mode : Variable
Overall bit rate : 9 839 Kbps
Video
ID : 224 (0xE0)
Format : MPEG Video
Format version : Version 2
Format profile : [email protected]
Format settings, BVOP : Yes
Format settings, Matrix : Custom
Format settings, GOP : M=3, N=12
Duration : 14mn 32s
Bit rate mode : Variable
Bit rate : 6 597 Kbps
Maximum bit rate : 6 800 Kbps
Width : 720 pixels
Height : 480 pixels
Display aspect ratio : 16:9
Frame rate : 23.976 fps
Standard : NTSC
Color space : YUV
Chroma subsampling : 4:2:0
Bit depth : 8 bits
Scan type : Progressive
Scan order : 2:3 Pulldown
Compression mode : Lossy
Bits/(Pixel*Frame) : 0.796
Time code of first frame : 00:57:45:04
Time code source : Group of pictures header
Stream size : 686 MiB (67%)
Audio #1
ID : 189 (0xBD)-137 (0x89)
Format : DTS
Format/Info : Digital Theater Systems
Mode : 16
Format settings, Endianness : Big
Muxing mode : DVD-Video
Duration : 14mn 33s
Bit rate mode : Constant
Bit rate : 1 510 Kbps
Channel(s) : 6 channels
Channel positions : Front: L C R, Side: L R, LFE
Sampling rate : 48.0 KHz
Bit depth : 24 bits
Compression mode : Lossy
Delay relative to video : -506ms
Stream size : 157 MiB (15%)
Audio #2
ID : 189 (0xBD)-160 (0xA0)
Format : PCM
Format settings, Endianness : Big
Format settings, Sign : Signed
Muxing mode : DVD-Video
Duration : 14mn 33s
Bit rate mode : Constant
Bit rate : 1 536 Kbps
Channel(s) : 2 channels
Sampling rate : 48.0 KHz
Bit depth : 16 bits
Delay relative to video : -504ms
Stream size : 160 MiB (16%)
Menu
General
Complete name : D:\Downloads\Tarja Turunen - Act II\DVD2\VIDEO_TS\VTS_01_6.VOB
Format : MPEG-PS
File size : 1 024 MiB
Duration : 14mn 25s
Overall bit rate mode : Variable
Overall bit rate : 9 922 Kbps
Video
ID : 224 (0xE0)
Format : MPEG Video
Format version : Version 2
Format profile : [email protected]
Format settings, BVOP : Yes
Format settings, Matrix : Custom
Format settings, GOP : M=3, N=12
Duration : 14mn 25s
Bit rate mode : Variable
Bit rate : 6 679 Kbps
Maximum bit rate : 6 800 Kbps
Width : 720 pixels
Height : 480 pixels
Display aspect ratio : 16:9
Frame rate : 23.976 fps
Standard : NTSC
Color space : YUV
Chroma subsampling : 4:2:0
Bit depth : 8 bits
Scan type : Progressive
Scan order : 2:3 Pulldown
Compression mode : Lossy
Bits/(Pixel*Frame) : 0.806
Time code of first frame : 01:12:17:04
Time code source : Group of pictures header
Stream size : 689 MiB (67%)
Audio #1
ID : 189 (0xBD)-137 (0x89)
Format : DTS
Format/Info : Digital Theater Systems
Mode : 16
Format settings, Endianness : Big
Muxing mode : DVD-Video
Duration : 14mn 25s
Bit rate mode : Constant
Bit rate : 1 510 Kbps
Channel(s) : 6 channels
Channel positions : Front: L C R, Side: L R, LFE
Sampling rate : 48.0 KHz
Bit depth : 24 bits
Compression mode : Lossy
Delay relative to video : -322ms
Stream size : 156 MiB (15%)
Audio #2
ID : 189 (0xBD)-160 (0xA0)
Format : PCM
Format settings, Endianness : Big
Format settings, Sign : Signed
Muxing mode : DVD-Video
Duration : 14mn 25s
Bit rate mode : Constant
Bit rate : 1 536 Kbps
Channel(s) : 2 channels
Sampling rate : 48.0 KHz
Bit depth : 16 bits
Delay relative to video : -324ms
Stream size : 159 MiB (15%)
Menu
General
Complete name : D:\Downloads\Tarja Turunen - Act II\DVD2\VIDEO_TS\VTS_01_7.VOB
Format : MPEG-PS
File size : 1 024 MiB
Duration : 14mn 28s
Overall bit rate mode : Variable
Overall bit rate : 9 895 Kbps
Video
ID : 224 (0xE0)
Format : MPEG Video
Format version : Version 2
Format profile : [email protected]
Format settings, BVOP : Yes
Format settings, Matrix : Custom
Format settings, GOP : M=3, N=12
Duration : 14mn 27s
Bit rate mode : Variable
Bit rate : 6 653 Kbps
Maximum bit rate : 6 800 Kbps
Width : 720 pixels
Height : 480 pixels
Display aspect ratio : 16:9
Frame rate : 23.976 fps
Standard : NTSC
Color space : YUV
Chroma subsampling : 4:2:0
Bit depth : 8 bits
Scan type : Progressive
Scan order : 2:3 Pulldown
Compression mode : Lossy
Bits/(Pixel*Frame) : 0.803
Time code of first frame : 01:26:42:04
Time code source : Group of pictures header
Stream size : 688 MiB (67%)
Audio #1
ID : 189 (0xBD)-137 (0x89)
Format : DTS
Format/Info : Digital Theater Systems
Mode : 16
Format settings, Endianness : Big
Muxing mode : DVD-Video
Duration : 14mn 28s
Bit rate mode : Constant
Bit rate : 1 510 Kbps
Channel(s) : 6 channels
Channel positions : Front: L C R, Side: L R, LFE
Sampling rate : 48.0 KHz
Bit depth : 24 bits
Compression mode : Lossy
Delay relative to video : -416ms
Stream size : 156 MiB (15%)
Audio #2
ID : 189 (0xBD)-160 (0xA0)
Format : PCM
Format settings, Endianness : Big
Format settings, Sign : Signed
Muxing mode : DVD-Video
Duration : 14mn 28s
Bit rate mode : Constant
Bit rate : 1 536 Kbps
Channel(s) : 2 channels
Sampling rate : 48.0 KHz
Bit depth : 16 bits
Delay relative to video : -418ms
Stream size : 159 MiB (16%)
Menu
General
Complete name : D:\Downloads\Tarja Turunen - Act II\DVD2\VIDEO_TS\VTS_01_8.VOB
Format : MPEG-PS
File size : 146 MiB
Duration : 2mn 4s
Overall bit rate mode : Variable
Overall bit rate : 9 843 Kbps
Video
ID : 224 (0xE0)
Format : MPEG Video
Format version : Version 2
Format profile : [email protected]
Format settings, BVOP : Yes
Format settings, Matrix : Custom
Format settings, GOP : Variable
Duration : 2mn 4s
Bit rate mode : Variable
Bit rate : 6 601 Kbps
Maximum bit rate : 6 800 Kbps
Width : 720 pixels
Height : 480 pixels
Display aspect ratio : 16:9
Frame rate : 23.976 fps
Standard : NTSC
Color space : YUV
Chroma subsampling : 4:2:0
Bit depth : 8 bits
Scan type : Progressive
Scan order : 2:3 Pulldown
Compression mode : Lossy
Bits/(Pixel*Frame) : 0.797
Time code of first frame : 01:41:09:10
Time code source : Group of pictures header
Stream size : 97.8 MiB (67%)
Audio #1
ID : 189 (0xBD)-137 (0x89)
Format : DTS
Format/Info : Digital Theater Systems
Mode : 16
Format settings, Endianness : Big
Muxing mode : DVD-Video
Duration : 2mn 4s
Bit rate mode : Constant
Bit rate : 1 510 Kbps
Channel(s) : 6 channels
Channel positions : Front: L C R, Side: L R, LFE
Sampling rate : 48.0 KHz
Bit depth : 24 bits
Compression mode : Lossy
Delay relative to video : -414ms
Stream size : 22.4 MiB (15%)
Audio #2
ID : 189 (0xBD)-160 (0xA0)
Format : PCM
Format settings, Endianness : Big
Format settings, Sign : Signed
Muxing mode : DVD-Video
Duration : 2mn 4s
Bit rate mode : Constant
Bit rate : 1 536 Kbps
Channel(s) : 2 channels
Sampling rate : 48.0 KHz
Bit depth : 16 bits
Delay relative to video : -417ms
Stream size : 22.8 MiB (16%)
Скриншоты меню
Скриншоты
DVD3
Треклист: Filmed at Teatro della Luna Assago in Milan, Italy, 29th of November, 2016
18. Too Many
19. Innocence
20. Die Alive
21. Until My Last Breath
Bonus Material
Interviews with Tarja and band members
PhotoGallery 1: Through the eyes of the fans
PhotoGallery 2: From stages and streets by Tim Tronckoe
Разбивка на главы по трекам: есть
Качество : BD=>DVD5
Формат: DVD video
Видео кодек: MPEG2
Аудио кодек: PCM; DTS: AC3
Видео: NTSC 16:9 (720x480p) VBR, Auto Letterboxed, 5988-6667(6800) Kbps, 23.976 fps
Аудио: English (LinearPCM, 2 ch) 1536 Kbps
Аудио2: English (DTS, 6 ch) 1510 Kbps
Аудио2: English (Dolby AC3, 2 ch) 192 Kbps (Bonus)
DVDinfo
Title: DVD3
Size: 4.19 Gb ( 4 396 074,00 KBytes ) - DVD-5
Enabled regions: 1, 2, 3, 4, 5, 6, 7, 8
VTS_01 :
Play Length: 00:32:24
Video: NTSC 16:9 (720x480) VBR, Auto Letterboxed
Audio:
English, LPCM, Delay = -1 mSec
English, DTS, 3/2 (L,C,R,SL,SR), 1536 kbps, Delay -1 mSec
VTS_02 :
Play Length: 00:24:55+00:10:21+00:05:53
Video: NTSC 16:9 (720x480) VBR, Auto Letterboxed
Audio:
English, AC3, 2/0 (L,R) ch, 192 kbps, Delay 0 mSec
* Menus Information *
VIDEO_TS Menu
Video:
NTSC 16:9 (720x480) VBR
Auto Letterboxed
Audio:
Not specified (Dolby AC3, 2 ch)
English Language Unit :
Title Menu
VTS_01 Menu
Video:
NTSC 16:9 (720x480) VBR
Auto Letterboxed
Audio:
Not specified (Dolby AC3, 2 ch)
English Language Unit :
Root Menu
VTS_02 Menu
Video:
NTSC 16:9 (720x480) VBR
Auto Letterboxed
Audio:
Not specified (Dolby AC3, 2 ch)
English Language Unit :
Root Menu
Скриншоты меню
Скриншоты
DVD4
Треклист: Filmed at Woodstock Festival, Poland, 16th of July, 2016:
Against The Odds
No Bitter End
Demons In You
500 Letters
Ciaran’s Well
Supremacy
Calling From The Wild
Tutankhamen-Ever Dream-The Riddler-Slaying The Dreamer
Innocence
Victim Of Ritual
Die Alive
Until My Last Breath
Over The Hills And Far Away
Filmed at Hellfest, France, June 19, 2016:
No Bitter End
Never Enough
Ciaran’s Well
Calling From The Wild
Supremacy
Victim Of Ritual
Tutankhamen-Ever Dream-The Riddler-Slaying The Dreamer
Die Alive
Until My Last Breath
Разбивка на главы по трекам: есть
Качество : BD=>DVD9
Формат: DVD video
Видео кодек: MPEG2
Аудио кодек: PCM; DTS
Видео: NTSC 16:9 (720x480p) VBR, Auto Letterboxed, ~6200(6800) Kbps, 23.976 fps
Аудио: English (LinearPCM, 2 ch) 1536 Kbps
Аудио2: English (DTS, 6 ch) 1510 Kbps
DVDinfo
Title: DVD4
Size: 7.93 Gb ( 8 312 438,00 KBytes ) - DVD-9
Enabled regions: 1, 2, 3, 4, 5, 6, 7, 8
VTS_01 :
Play Length: 01:11:34+00:46:43
Video: NTSC 16:9 (720x480) VBR, Auto Letterboxed
Audio:
English, LPCM, Delay = 0 mSec
English, DTS, 3/2 (L,C,R,SL,SR), 1536 kbps, Delay 0 mSec
* Menus Information *
VIDEO_TS Menu
Video:
NTSC 16:9 (720x480) VBR
Auto Letterboxed
Audio:
Not specified (Dolby AC3, 2 ch)
English Language Unit :
Title Menu
VTS_01 Menu
Video:
NTSC 16:9 (720x480) VBR
Auto Letterboxed
Audio:
Not specified (Dolby AC3, 2 ch)
English Language Unit :
Root Menu
Скриншоты меню
Данная раздача предназначена для ознакомления.
Ознакомился сам? Не забудь позаботиться о ближнем - помоги ознакомиться и ему, продолжая сидировать. И тогда тебя не посетит Ктулху!

Download
Для скачивания .torrent файлов необходима регистрация
Сайт не распространяет и не хранит электронные версии произведений, а лишь предоставляет доступ к создаваемому пользователями каталогу ссылок на торрент-файлы, которые содержат только списки хеш-сумм
[Профиль]  [ЛС] 

CHKA1961

Moderator gray

Стаж: 11 лет 5 месяцев

Сообщений: 6905

CHKA1961 · 07-Авг-18 07:25 (спустя 1 мин., ред. 13-Сен-18 03:02)

[Цитировать] 

DVD3+DVD4 - MI
General
Complete name : D:\Downloads\Tarja Turunen - Act II\DVD3\VIDEO_TS\VIDEO_TS.BUP
Format : DVD Video
Format profile : Menu
File size : 12.0 KiB
Overall bit rate mode : Variable
Video
ID : 224 (0xE0)
Format : MPEG Video
Format version : Version 2
Bit rate mode : Variable
Width : 720 pixels
Height : 480 pixels
Display aspect ratio : 16:9
Frame rate : 29.970 fps
Standard : NTSC
Compression mode : Lossy
Audio
Format : AC-3
Format/Info : Audio Coding 3
Channel(s) : 2 channels
Sampling rate : 48.0 KHz
Compression mode : Lossy
Text
Format : RLE
Format/Info : Run-length encoding
Bit depth : 2 bits
General
Complete name : D:\Downloads\Tarja Turunen - Act II\DVD3\VIDEO_TS\VIDEO_TS.IFO
Format : DVD Video
Format profile : Menu
File size : 12.0 KiB
Overall bit rate mode : Variable
Video
ID : 224 (0xE0)
Format : MPEG Video
Format version : Version 2
Bit rate mode : Variable
Width : 720 pixels
Height : 480 pixels
Display aspect ratio : 16:9
Frame rate : 29.970 fps
Standard : NTSC
Compression mode : Lossy
Audio
Format : AC-3
Format/Info : Audio Coding 3
Channel(s) : 2 channels
Sampling rate : 48.0 KHz
Compression mode : Lossy
Text
Format : RLE
Format/Info : Run-length encoding
Bit depth : 2 bits
General
Complete name : D:\Downloads\Tarja Turunen - Act II\DVD3\VIDEO_TS\VIDEO_TS.VOB
Format : MPEG-PS
File size : 24.6 MiB
Duration : 32s 352ms
Overall bit rate mode : Variable
Overall bit rate : 6 383 Kbps
Writing library : (c) 1998-2009 Womble Multimedia, Inc. / MPEG Video Wizard (03/2009) / Jun 24 2009
Video
ID : 224 (0xE0)
Format : MPEG Video
Format version : Version 2
Format profile : [email protected]
Format settings, BVOP : Yes
Format settings, Matrix : Default
Format settings, GOP : M=3, N=15
Duration : 14ms
Bit rate mode : Variable
Bit rate : 6 064 Kbps
Maximum bit rate : 8 000 Kbps
Width : 720 pixels
Height : 480 pixels
Display aspect ratio : 16:9
Frame rate : 29.970 fps
Standard : NTSC
Color space : YUV
Chroma subsampling : 4:2:0
Bit depth : 8 bits
Scan type : Progressive
Compression mode : Lossy
Bits/(Pixel*Frame) : 0.585
Time code of first frame : 00:00:00;00
Time code source : Group of pictures header
Stream size : 10.4 KiB (0%)
Writing library : (c) 1998-2009 Womble Multimedia, Inc. / MPEG Video Wizard (03/2009) / Jun 24 2009
Audio
ID : 189 (0xBD)-128 (0x80)
Format : AC-3
Format/Info : Audio Coding 3
Mode extension : CM (complete main)
Format settings, Endianness : Big
Muxing mode : DVD-Video
Duration : 32s 352ms
Bit rate mode : Constant
Bit rate : 192 Kbps
Channel(s) : 2 channels
Channel positions : Front: L R
Sampling rate : 48.0 KHz
Bit depth : 16 bits
Compression mode : Lossy
Stream size : 758 KiB (3%)
Text
ID : 189 (0xBD)-32 (0x20)
Format : RLE
Format/Info : Run-length encoding
Muxing mode : DVD-Video
Menu
General
Complete name : D:\Downloads\Tarja Turunen - Act II\DVD3\VIDEO_TS\VTS_01_0.BUP
Format : DVD Video
Format profile : Program
File size : 38.0 KiB
Duration : 32mn 24s
Overall bit rate mode : Variable
Overall bit rate : 160 bps
Video
ID : 224 (0xE0)
Format : MPEG Video
Format version : Version 2
Duration : 32mn 24s
Bit rate mode : Variable
Width : 720 pixels
Height : 480 pixels
Display aspect ratio : 16:9
Frame rate : 29.970 fps
Standard : NTSC
Compression mode : Lossy
Audio #1
ID : 0 (0x0)
Format : PCM
Duration : 32mn 24s
Channel(s) : 2 channels
Sampling rate : 48.0 KHz
Language : English
Audio #2
ID : 137 (0x89)
Format : DTS
Format/Info : Digital Theater Systems
Duration : 32mn 24s
Channel(s) : 6 channels
Sampling rate : 48.0 KHz
Compression mode : Lossy
Language : English
Menu
Duration : 32mn 24s
00:00:00.000 : Chapter 1
00:09:46.233 : Chapter 2
00:14:48.199 : Chapter 3
00:19:43.699 : Chapter 4
00:25:23.465 : Chapter 5
00:27:25.431 : Chapter 6
00:32:23.431 : Chapter 7
List (Audio) : 0 / 1
General
Complete name : D:\Downloads\Tarja Turunen - Act II\DVD3\VIDEO_TS\VTS_01_0.IFO
Format : DVD Video
Format profile : Program
File size : 38.0 KiB
Duration : 32mn 24s
Overall bit rate mode : Variable
Overall bit rate : 160 bps
Video
ID : 224 (0xE0)
Format : MPEG Video
Format version : Version 2
Duration : 32mn 24s
Bit rate mode : Variable
Width : 720 pixels
Height : 480 pixels
Display aspect ratio : 16:9
Frame rate : 29.970 fps
Standard : NTSC
Compression mode : Lossy
Audio #1
ID : 0 (0x0)
Format : PCM
Duration : 32mn 24s
Channel(s) : 2 channels
Sampling rate : 48.0 KHz
Language : English
Audio #2
ID : 137 (0x89)
Format : DTS
Format/Info : Digital Theater Systems
Duration : 32mn 24s
Channel(s) : 6 channels
Sampling rate : 48.0 KHz
Compression mode : Lossy
Language : English
Menu
Duration : 32mn 24s
00:00:00.000 : Chapter 1
00:09:46.233 : Chapter 2
00:14:48.199 : Chapter 3
00:19:43.699 : Chapter 4
00:25:23.465 : Chapter 5
00:27:25.431 : Chapter 6
00:32:23.431 : Chapter 7
List (Audio) : 0 / 1
General
Complete name : D:\Downloads\Tarja Turunen - Act II\DVD3\VIDEO_TS\VTS_01_0.VOB
Format : MPEG-PS
File size : 82.7 MiB
Duration : 1mn 15s
Overall bit rate mode : Variable
Overall bit rate : 9 217 Kbps
Writing library : (c) 1998-2009 Womble Multimedia, Inc. / MPEG Video Wizard (03/2009) / Jun 24 2009
Video
ID : 224 (0xE0)
Format : MPEG Video
Format version : Version 2
Format profile : [email protected]
Format settings, BVOP : Yes
Format settings, Matrix : Default
Format settings, GOP : M=3, N=15
Duration : 1mn 15s
Bit rate mode : Variable
Bit rate : 8 841 Kbps
Maximum bit rate : 8 500 Kbps
Width : 720 pixels
Height : 480 pixels
Display aspect ratio : 16:9
Frame rate : 29.970 fps
Standard : NTSC
Color space : YUV
Chroma subsampling : 4:2:0
Bit depth : 8 bits
Scan type : Progressive
Compression mode : Lossy
Bits/(Pixel*Frame) : 0.854
Time code of first frame : 00:00:00:00
Time code source : Group of pictures header
Stream size : 79.4 MiB (96%)
Writing library : (c) 1998-2009 Womble Multimedia, Inc. / MPEG Video Wizard (03/2009) / Jun 24 2009
Color primaries : BT.470 System M
Transfer characteristics : BT.470 System M
Matrix coefficients : BT.601
Audio
ID : 189 (0xBD)-128 (0x80)
Format : AC-3
Format/Info : Audio Coding 3
Mode extension : CM (complete main)
Format settings, Endianness : Big
Muxing mode : DVD-Video
Duration : 1mn 15s
Bit rate mode : Constant
Bit rate : 192 Kbps
Channel(s) : 2 channels
Channel positions : Front: L R
Sampling rate : 48.0 KHz
Bit depth : 16 bits
Compression mode : Lossy
Stream size : 1.72 MiB (2%)
Text #1
ID : 189 (0xBD)-32 (0x20)
Format : RLE
Format/Info : Run-length encoding
Muxing mode : DVD-Video
Text #2
ID : 189 (0xBD)-34 (0x22)
Format : RLE
Format/Info : Run-length encoding
Muxing mode : DVD-Video
Menu
General
Complete name : D:\Downloads\Tarja Turunen - Act II\DVD3\VIDEO_TS\VTS_01_1.VOB
Format : MPEG-PS
File size : 1 024 MiB
Duration : 14mn 31s
Overall bit rate mode : Variable
Overall bit rate : 9 855 Kbps
Video
ID : 224 (0xE0)
Format : MPEG Video
Format version : Version 2
Format profile : [email protected]
Format settings, BVOP : Yes
Format settings, Matrix : Custom
Format settings, GOP : M=3, N=12
Duration : 14mn 31s
Bit rate mode : Variable
Bit rate : 6 613 Kbps
Maximum bit rate : 6 800 Kbps
Width : 720 pixels
Height : 480 pixels
Display aspect ratio : 16:9
Frame rate : 23.976 fps
Standard : NTSC
Color space : YUV
Chroma subsampling : 4:2:0
Bit depth : 8 bits
Scan type : Progressive
Scan order : 2:3 Pulldown
Compression mode : Lossy
Bits/(Pixel*Frame) : 0.798
Time code of first frame : 01:43:13:21
Time code source : Group of pictures header
Stream size : 687 MiB (67%)
Audio #1
ID : 189 (0xBD)-137 (0x89)
Format : DTS
Format/Info : Digital Theater Systems
Mode : 16
Format settings, Endianness : Big
Muxing mode : DVD-Video
Duration : 14mn 31s
Bit rate mode : Constant
Bit rate : 1 510 Kbps
Channel(s) : 6 channels
Channel positions : Front: L C R, Side: L R, LFE
Sampling rate : 48.0 KHz
Bit depth : 24 bits
Compression mode : Lossy
Delay relative to video : -85ms
Stream size : 157 MiB (15%)
Audio #2
ID : 189 (0xBD)-160 (0xA0)
Format : PCM
Format settings, Endianness : Big
Format settings, Sign : Signed
Muxing mode : DVD-Video
Duration : 14mn 31s
Bit rate mode : Constant
Bit rate : 1 536 Kbps
Channel(s) : 2 channels
Sampling rate : 48.0 KHz
Bit depth : 16 bits
Delay relative to video : -85ms
Stream size : 160 MiB (16%)
Menu
General
Complete name : D:\Downloads\Tarja Turunen - Act II\DVD3\VIDEO_TS\VTS_01_2.VOB
Format : MPEG-PS
File size : 1 024 MiB
Duration : 14mn 24s
Overall bit rate mode : Variable
Overall bit rate : 9 935 Kbps
Video
ID : 224 (0xE0)
Format : MPEG Video
Format version : Version 2
Format profile : [email protected]
Format settings, BVOP : Yes
Format settings, Matrix : Custom
Format settings, GOP : M=3, N=12
Duration : 14mn 24s
Bit rate mode : Variable
Bit rate : 6 691 Kbps
Maximum bit rate : 6 800 Kbps
Width : 720 pixels
Height : 480 pixels
Display aspect ratio : 16:9
Frame rate : 23.976 fps
Standard : NTSC
Color space : YUV
Chroma subsampling : 4:2:0
Bit depth : 8 bits
Scan type : Progressive
Scan order : 2:3 Pulldown
Compression mode : Lossy
Bits/(Pixel*Frame) : 0.808
Time code of first frame : 01:57:44:26
Time code source : Group of pictures header
Stream size : 689 MiB (67%)
Audio #1
ID : 189 (0xBD)-137 (0x89)
Format : DTS
Format/Info : Digital Theater Systems
Mode : 16
Format settings, Endianness : Big
Muxing mode : DVD-Video
Duration : 14mn 24s
Bit rate mode : Constant
Bit rate : 1 510 Kbps
Channel(s) : 6 channels
Channel positions : Front: L C R, Side: L R, LFE
Sampling rate : 48.0 KHz
Bit depth : 24 bits
Compression mode : Lossy
Delay relative to video : -667ms
Stream size : 156 MiB (15%)
Audio #2
ID : 189 (0xBD)-160 (0xA0)
Format : PCM
Format settings, Endianness : Big
Format settings, Sign : Signed
Muxing mode : DVD-Video
Duration : 14mn 24s
Bit rate mode : Constant
Bit rate : 1 536 Kbps
Channel(s) : 2 channels
Sampling rate : 48.0 KHz
Bit depth : 16 bits
Delay relative to video : -671ms
Stream size : 158 MiB (15%)
Menu
General
Complete name : D:\Downloads\Tarja Turunen - Act II\DVD3\VIDEO_TS\VTS_01_3.VOB
Format : MPEG-PS
File size : 248 MiB
Duration : 3mn 29s
Overall bit rate mode : Variable
Overall bit rate : 9 926 Kbps
Video
ID : 224 (0xE0)
Format : MPEG Video
Format version : Version 2
Format profile : [email protected]
Format settings, BVOP : Yes
Format settings, Matrix : Custom
Format settings, GOP : M=3, N=12
Duration : 3mn 29s
Bit rate mode : Variable
Bit rate : 6 682 Kbps
Maximum bit rate : 6 800 Kbps
Width : 720 pixels
Height : 480 pixels
Display aspect ratio : 16:9
Frame rate : 23.976 fps
Standard : NTSC
Color space : YUV
Chroma subsampling : 4:2:0
Bit depth : 8 bits
Scan type : Progressive
Scan order : 2:3 Pulldown
Compression mode : Lossy
Bits/(Pixel*Frame) : 0.806
Time code of first frame : 02:12:08:18
Time code source : Group of pictures header
Stream size : 167 MiB (67%)
Audio #1
ID : 189 (0xBD)-137 (0x89)
Format : DTS
Format/Info : Digital Theater Systems
Mode : 16
Format settings, Endianness : Big
Muxing mode : DVD-Video
Duration : 3mn 29s
Bit rate mode : Constant
Bit rate : 1 510 Kbps
Channel(s) : 6 channels
Channel positions : Front: L C R, Side: L R, LFE
Sampling rate : 48.0 KHz
Bit depth : 24 bits
Compression mode : Lossy
Delay relative to video : -596ms
Stream size : 37.8 MiB (15%)
Audio #2
ID : 189 (0xBD)-160 (0xA0)
Format : PCM
Format settings, Endianness : Big
Format settings, Sign : Signed
Muxing mode : DVD-Video
Duration : 3mn 29s
Bit rate mode : Constant
Bit rate : 1 536 Kbps
Channel(s) : 2 channels
Sampling rate : 48.0 KHz
Bit depth : 16 bits
Delay relative to video : -608ms
Stream size : 38.4 MiB (15%)
Menu
General
Complete name : D:\Downloads\Tarja Turunen - Act II\DVD3\VIDEO_TS\VTS_02_0.BUP
Format : DVD Video
Format profile : Program
File size : 44.0 KiB
Duration : 24mn 55s
Overall bit rate mode : Variable
Overall bit rate : 241 bps
Video
ID : 224 (0xE0)
Format : MPEG Video
Format version : Version 2
Duration : 24mn 55s
Bit rate mode : Variable
Width : 720 pixels
Height : 480 pixels
Display aspect ratio : 16:9
Frame rate : 29.970 fps
Standard : NTSC
Compression mode : Lossy
Audio
ID : 128 (0x80)
Format : AC-3
Format/Info : Audio Coding 3
Duration : 24mn 55s
Channel(s) : 2 channels
Sampling rate : 48.0 KHz
Compression mode : Lossy
Language : English
Menu #1
Duration : 24mn 55s
00:00:00.000 : Chapter 1
List (Audio) : 0
Menu #2
Duration : 10mn 21s
00:00:00.000 : Chapter 1
List (Audio) : 0
General
Complete name : D:\Downloads\Tarja Turunen - Act II\DVD3\VIDEO_TS\VTS_02_0.IFO
Format : DVD Video
Format profile : Program
File size : 44.0 KiB
Duration : 24mn 55s
Overall bit rate mode : Variable
Overall bit rate : 241 bps
Video
ID : 224 (0xE0)
Format : MPEG Video
Format version : Version 2
Duration : 24mn 55s
Bit rate mode : Variable
Width : 720 pixels
Height : 480 pixels
Display aspect ratio : 16:9
Frame rate : 29.970 fps
Standard : NTSC
Compression mode : Lossy
Audio
ID : 128 (0x80)
Format : AC-3
Format/Info : Audio Coding 3
Duration : 24mn 55s
Channel(s) : 2 channels
Sampling rate : 48.0 KHz
Compression mode : Lossy
Language : English
Menu #1
Duration : 24mn 55s
00:00:00.000 : Chapter 1
List (Audio) : 0
Menu #2
Duration : 10mn 21s
00:00:00.000 : Chapter 1
List (Audio) : 0
General
Complete name : D:\Downloads\Tarja Turunen - Act II\DVD3\VIDEO_TS\VTS_02_0.VOB
Format : MPEG-PS
File size : 29.8 MiB
Duration : 1mn 15s
Overall bit rate mode : Variable
Overall bit rate : 3 324 Kbps
Writing library : (c) 1998-2009 Womble Multimedia, Inc. / MPEG Video Wizard (03/2009) / Jun 24 2009
Video
ID : 224 (0xE0)
Format : MPEG Video
Format version : Version 2
Format profile : [email protected]
Format settings, BVOP : Yes
Format settings, Matrix : Default
Format settings, GOP : M=3, N=15
Duration : 1mn 15s
Bit rate mode : Variable
Bit rate : 3 065 Kbps
Maximum bit rate : 8 500 Kbps
Width : 720 pixels
Height : 480 pixels
Display aspect ratio : 16:9
Frame rate : 29.970 fps
Standard : NTSC
Color space : YUV
Chroma subsampling : 4:2:0
Bit depth : 8 bits
Scan type : Progressive
Compression mode : Lossy
Bits/(Pixel*Frame) : 0.296
Time code of first frame : 00:00:00:00
Time code source : Group of pictures header
Stream size : 27.5 MiB (92%)
Writing library : (c) 1998-2009 Womble Multimedia, Inc. / MPEG Video Wizard (03/2009) / Jun 24 2009
Color primaries : BT.470 System M
Transfer characteristics : BT.470 System M
Matrix coefficients : BT.601
Audio
ID : 189 (0xBD)-128 (0x80)
Format : AC-3
Format/Info : Audio Coding 3
Mode extension : CM (complete main)
Format settings, Endianness : Big
Muxing mode : DVD-Video
Duration : 1mn 15s
Bit rate mode : Constant
Bit rate : 192 Kbps
Channel(s) : 2 channels
Channel positions : Front: L R
Sampling rate : 48.0 KHz
Bit depth : 16 bits
Compression mode : Lossy
Stream size : 1.72 MiB (6%)
Text #1
ID : 189 (0xBD)-32 (0x20)
Format : RLE
Format/Info : Run-length encoding
Muxing mode : DVD-Video
Text #2
ID : 189 (0xBD)-34 (0x22)
Format : RLE
Format/Info : Run-length encoding
Muxing mode : DVD-Video
Menu
General
Complete name : D:\Downloads\Tarja Turunen - Act II\DVD3\VIDEO_TS\VTS_02_1.VOB
Format : MPEG-PS
File size : 1 024 MiB
Duration : 22mn 33s
Overall bit rate mode : Variable
Overall bit rate : 6 349 Kbps
Video
ID : 224 (0xE0)
Format : MPEG Video
Format version : Version 2
Format profile : [email protected]
Format settings, BVOP : Yes
Format settings, Matrix : Custom
Format settings, GOP : Variable
Duration : 22mn 33s
Bit rate mode : Variable
Bit rate : 6 030 Kbps
Maximum bit rate : 6 800 Kbps
Width : 720 pixels
Height : 480 pixels
Display aspect ratio : 16:9
Frame rate : 23.976 fps
Standard : NTSC
Color space : YUV
Chroma subsampling : 4:2:0
Bit depth : 8 bits
Scan type : Progressive
Scan order : 2:3 Pulldown
Compression mode : Lossy
Bits/(Pixel*Frame) : 0.728
Time code of first frame : 00:00:00:00
Time code source : Group of pictures header
Stream size : 973 MiB (95%)
Audio
ID : 189 (0xBD)-128 (0x80)
Format : AC-3
Format/Info : Audio Coding 3
Mode extension : CM (complete main)
Format settings, Endianness : Big
Muxing mode : DVD-Video
Duration : 22mn 32s
Bit rate mode : Constant
Bit rate : 192 Kbps
Channel(s) : 2 channels
Channel positions : Front: L R
Sampling rate : 48.0 KHz
Bit depth : 16 bits
Compression mode : Lossy
Stream size : 31.0 MiB (3%)
Menu
General
Complete name : D:\Downloads\Tarja Turunen - Act II\DVD3\VIDEO_TS\VTS_02_2.VOB
Format : MPEG-PS
File size : 835 MiB
Overall bit rate mode : Variable
Video
ID : 224 (0xE0)
Format : MPEG Video
Format version : Version 2
Format profile : [email protected]
Format settings, BVOP : Yes
Format settings, Matrix : Custom
Format settings, GOP : Variable
Bit rate mode : Variable
Maximum bit rate : 6 800 Kbps
Width : 720 pixels
Height : 480 pixels
Display aspect ratio : 16:9
Frame rate : 23.976 fps
Standard : NTSC
Color space : YUV
Chroma subsampling : 4:2:0
Bit depth : 8 bits
Scan type : Progressive
Scan order : 2:3 Pulldown
Compression mode : Lossy
Time code of first frame : 00:22:31:28
Time code source : Group of pictures header
Audio
ID : 189 (0xBD)-128 (0x80)
Format : AC-3
Format/Info : Audio Coding 3
Mode extension : CM (complete main)
Format settings, Endianness : Big
Muxing mode : DVD-Video
Bit rate mode : Constant
Bit rate : 192 Kbps
Channel(s) : 2 channels
Channel positions : Front: L R
Sampling rate : 48.0 KHz
Bit depth : 16 bits
Compression mode : Lossy
Delay relative to video : -520ms
General
Complete name : D:\Downloads\Tarja Turunen - Act II\DVD4\VIDEO_TS\VIDEO_TS.BUP
Format : DVD Video
Format profile : Menu
File size : 12.0 KiB
Overall bit rate mode : Variable
Video
ID : 224 (0xE0)
Format : MPEG Video
Format version : Version 2
Bit rate mode : Variable
Width : 720 pixels
Height : 480 pixels
Display aspect ratio : 16:9
Frame rate : 29.970 fps
Standard : NTSC
Compression mode : Lossy
Audio
Format : AC-3
Format/Info : Audio Coding 3
Channel(s) : 2 channels
Sampling rate : 48.0 KHz
Compression mode : Lossy
Text
Format : RLE
Format/Info : Run-length encoding
Bit depth : 2 bits
General
Complete name : D:\Downloads\Tarja Turunen - Act II\DVD4\VIDEO_TS\VIDEO_TS.IFO
Format : DVD Video
Format profile : Menu
File size : 12.0 KiB
Overall bit rate mode : Variable
Video
ID : 224 (0xE0)
Format : MPEG Video
Format version : Version 2
Bit rate mode : Variable
Width : 720 pixels
Height : 480 pixels
Display aspect ratio : 16:9
Frame rate : 29.970 fps
Standard : NTSC
Compression mode : Lossy
Audio
Format : AC-3
Format/Info : Audio Coding 3
Channel(s) : 2 channels
Sampling rate : 48.0 KHz
Compression mode : Lossy
Text
Format : RLE
Format/Info : Run-length encoding
Bit depth : 2 bits
General
Complete name : D:\Downloads\Tarja Turunen - Act II\DVD4\VIDEO_TS\VIDEO_TS.VOB
Format : MPEG-PS
File size : 16.6 MiB
Duration : 32s 533ms
Overall bit rate mode : Variable
Overall bit rate : 4 290 Kbps
Video
ID : 224 (0xE0)
Format : MPEG Video
Format version : Version 2
Format profile : [email protected]
Format settings, BVOP : Yes
Format settings, Matrix : Custom
Format settings, GOP : M=3, N=15
Duration : 32s 533ms
Bit rate mode : Variable
Bit rate : 4 012 Kbps
Maximum bit rate : 8 000 Kbps
Width : 720 pixels
Height : 480 pixels
Display aspect ratio : 16:9
Frame rate : 29.970 fps
Standard : NTSC
Color space : YUV
Chroma subsampling : 4:2:0
Bit depth : 8 bits
Scan type : Progressive
Compression mode : Lossy
Bits/(Pixel*Frame) : 0.387
Time code of first frame : 00:00:00:00
Time code source : Group of pictures header
Stream size : 15.6 MiB (94%)
Audio
ID : 189 (0xBD)-128 (0x80)
Format : AC-3
Format/Info : Audio Coding 3
Mode extension : CM (complete main)
Format settings, Endianness : Big
Muxing mode : DVD-Video
Duration : 32s 448ms
Bit rate mode : Constant
Bit rate : 192 Kbps
Channel(s) : 2 channels
Channel positions : Front: L R
Sampling rate : 48.0 KHz
Bit depth : 16 bits
Compression mode : Lossy
Stream size : 761 KiB (4%)
Text #1
ID : 189 (0xBD)-32 (0x20)
Format : RLE
Format/Info : Run-length encoding
Muxing mode : DVD-Video
Text #2
ID : 189 (0xBD)-34 (0x22)
Format : RLE
Format/Info : Run-length encoding
Muxing mode : DVD-Video
Menu
General
Complete name : D:\Downloads\Tarja Turunen - Act II\DVD4\VIDEO_TS\VTS_01_0.BUP
Format : DVD Video
Format profile : Program
File size : 82.0 KiB
Duration : 1h 11mn
Overall bit rate mode : Variable
Overall bit rate : 156 bps
Video
ID : 224 (0xE0)
Format : MPEG Video
Format version : Version 2
Duration : 1h 11mn
Bit rate mode : Variable
Width : 720 pixels
Height : 480 pixels
Display aspect ratio : 16:9
Frame rate : 29.970 fps
Standard : NTSC
Compression mode : Lossy
Audio #1
ID : 0 (0x0)
Format : PCM
Duration : 1h 11mn
Channel(s) : 2 channels
Sampling rate : 48.0 KHz
Language : English
Audio #2
ID : 137 (0x89)
Format : DTS
Format/Info : Digital Theater Systems
Duration : 1h 11mn
Channel(s) : 6 channels
Sampling rate : 48.0 KHz
Compression mode : Lossy
Language : English
Menu #1
Duration : 1h 11mn
00:00:00.000 : Chapter 1
00:02:45.000 : Chapter 2
00:07:14.200 : Chapter 3
00:12:04.533 : Chapter 4
00:16:26.133 : Chapter 5
00:20:15.366 : Chapter 6
00:25:33.332 : Chapter 7
00:34:35.432 : Chapter 8
00:41:27.398 : Chapter 9
00:46:27.564 : Chapter 10
00:52:47.164 : Chapter 11
00:56:58.930 : Chapter 12
01:03:44.362 : Chapter 13
List (Audio) : 0 / 1
Menu #2
Duration : 46mn 43s
00:00:00.000 : Chapter 1
00:00:04.160 : Chapter 2
00:00:35.160 : Chapter 3
00:00:38.600 : Chapter 4
00:01:04.600 : Chapter 5
00:01:11.600 : Chapter 6
00:01:31.600 : Chapter 7
00:02:05.600 : Chapter 8
00:02:13.600 : Chapter 9
List (Audio) : 0 / 1
Menu #3
General
Complete name : D:\Downloads\Tarja Turunen - Act II\DVD4\VIDEO_TS\VTS_01_0.IFO
Format : DVD Video
Format profile : Program
File size : 82.0 KiB
Duration : 1h 11mn
Overall bit rate mode : Variable
Overall bit rate : 156 bps
Video
ID : 224 (0xE0)
Format : MPEG Video
Format version : Version 2
Duration : 1h 11mn
Bit rate mode : Variable
Width : 720 pixels
Height : 480 pixels
Display aspect ratio : 16:9
Frame rate : 29.970 fps
Standard : NTSC
Compression mode : Lossy
Audio #1
ID : 0 (0x0)
Format : PCM
Duration : 1h 11mn
Channel(s) : 2 channels
Sampling rate : 48.0 KHz
Language : English
Audio #2
ID : 137 (0x89)
Format : DTS
Format/Info : Digital Theater Systems
Duration : 1h 11mn
Channel(s) : 6 channels
Sampling rate : 48.0 KHz
Compression mode : Lossy
Language : English
Menu #1
Duration : 1h 11mn
00:00:00.000 : Chapter 1
00:02:45.000 : Chapter 2
00:07:14.200 : Chapter 3
00:12:04.533 : Chapter 4
00:16:26.133 : Chapter 5
00:20:15.366 : Chapter 6
00:25:33.332 : Chapter 7
00:34:35.432 : Chapter 8
00:41:27.398 : Chapter 9
00:46:27.564 : Chapter 10
00:52:47.164 : Chapter 11
00:56:58.930 : Chapter 12
01:03:44.362 : Chapter 13
List (Audio) : 0 / 1
Menu #2
Duration : 46mn 43s
00:00:00.000 : Chapter 1
00:00:04.160 : Chapter 2
00:00:35.160 : Chapter 3
00:00:38.600 : Chapter 4
00:01:04.600 : Chapter 5
00:01:11.600 : Chapter 6
00:01:31.600 : Chapter 7
00:02:05.600 : Chapter 8
00:02:13.600 : Chapter 9
List (Audio) : 0 / 1
Menu #3
General
Complete name : D:\Downloads\Tarja Turunen - Act II\DVD4\VIDEO_TS\VTS_01_0.VOB
Format : MPEG-PS
File size : 122 MiB
Duration : 1mn 15s
Overall bit rate mode : Variable
Overall bit rate : 13.6 Mbps
Writing library : (c) 1998-2009 Womble Multimedia, Inc. / MPEG Video Wizard (03/2009) / Jun 24 2009
Video
ID : 224 (0xE0)
Format : MPEG Video
Format version : Version 2
Format profile : [email protected]
Format settings, BVOP : Yes
Format settings, Matrix : Default
Format settings, GOP : M=3, N=15
Duration : 1mn 15s
Bit rate mode : Variable
Bit rate : 13.2 Mbps
Maximum bit rate : 8 500 Kbps
Width : 720 pixels
Height : 480 pixels
Display aspect ratio : 16:9
Frame rate : 29.970 fps
Standard : NTSC
Color space : YUV
Chroma subsampling : 4:2:0
Bit depth : 8 bits
Scan type : Progressive
Compression mode : Lossy
Bits/(Pixel*Frame) : 1.272
Time code of first frame : 00:00:00:00
Time code source : Group of pictures header
Stream size : 118 MiB (97%)
Writing library : (c) 1998-2009 Womble Multimedia, Inc. / MPEG Video Wizard (03/2009) / Jun 24 2009
Color primaries : BT.470 System M
Transfer characteristics : BT.470 System M
Matrix coefficients : BT.601
Audio
ID : 189 (0xBD)-128 (0x80)
Format : AC-3
Format/Info : Audio Coding 3
Mode extension : CM (complete main)
Format settings, Endianness : Big
Muxing mode : DVD-Video
Duration : 1mn 15s
Bit rate mode : Constant
Bit rate : 192 Kbps
Channel(s) : 2 channels
Channel positions : Front: L R
Sampling rate : 48.0 KHz
Bit depth : 16 bits
Compression mode : Lossy
Stream size : 1.72 MiB (1%)
Text #1
ID : 189 (0xBD)-32 (0x20)
Format : RLE
Format/Info : Run-length encoding
Muxing mode : DVD-Video
Text #2
ID : 189 (0xBD)-34 (0x22)
Format : RLE
Format/Info : Run-length encoding
Muxing mode : DVD-Video
Menu
General
Complete name : D:\Downloads\Tarja Turunen - Act II\DVD4\VIDEO_TS\VTS_01_1.VOB
Format : MPEG-PS
File size : 1 024 MiB
Duration : 15mn 19s
Overall bit rate mode : Variable
Overall bit rate : 9 344 Kbps
Video
ID : 224 (0xE0)
Format : MPEG Video
Format version : Version 2
Format profile : [email protected]
Format settings, BVOP : Yes
Format settings, Matrix : Custom
Format settings, GOP : Variable
Duration : 15mn 19s
Bit rate mode : Variable
Bit rate : 6 113 Kbps
Maximum bit rate : 6 800 Kbps
Width : 720 pixels
Height : 480 pixels
Display aspect ratio : 16:9
Frame rate : 23.976 fps
Standard : NTSC
Color space : YUV
Chroma subsampling : 4:2:0
Bit depth : 8 bits
Scan type : Progressive
Scan order : 2:3 Pulldown
Compression mode : Lossy
Bits/(Pixel*Frame) : 0.738
Time code of first frame : 00:00:00:00
Time code source : Group of pictures header
Stream size : 670 MiB (65%)
Audio #1
ID : 189 (0xBD)-137 (0x89)
Format : DTS
Format/Info : Digital Theater Systems
Mode : 16
Format settings, Endianness : Big
Muxing mode : DVD-Video
Duration : 15mn 19s
Bit rate mode : Constant
Bit rate : 1 510 Kbps
Channel(s) : 6 channels
Channel positions : Front: L C R, Side: L R, LFE
Sampling rate : 48.0 KHz
Bit depth : 24 bits
Compression mode : Lossy
Stream size : 165 MiB (16%)
Audio #2
ID : 189 (0xBD)-160 (0xA0)
Format : PCM
Format settings, Endianness : Big
Format settings, Sign : Signed
Muxing mode : DVD-Video
Duration : 15mn 19s
Bit rate mode : Constant
Bit rate : 1 536 Kbps
Channel(s) : 2 channels
Sampling rate : 48.0 KHz
Bit depth : 16 bits
Stream size : 168 MiB (16%)
Menu
General
Complete name : D:\Downloads\Tarja Turunen - Act II\DVD4\VIDEO_TS\VTS_01_2.VOB
Format : MPEG-PS
File size : 1 024 MiB
Duration : 15mn 3s
Overall bit rate mode : Variable
Overall bit rate : 9 508 Kbps
Video
ID : 224 (0xE0)
Format : MPEG Video
Format version : Version 2
Format profile : [email protected]
Format settings, BVOP : Yes
Format settings, Matrix : Custom
Format settings, GOP : Variable
Duration : 15mn 3s
Bit rate mode : Variable
Bit rate : 6 273 Kbps
Maximum bit rate : 6 800 Kbps
Width : 720 pixels
Height : 480 pixels
Display aspect ratio : 16:9
Frame rate : 23.976 fps
Standard : NTSC
Color space : YUV
Chroma subsampling : 4:2:0
Bit depth : 8 bits
Scan type : Progressive
Scan order : 2:3 Pulldown
Compression mode : Lossy
Bits/(Pixel*Frame) : 0.757
Time code of first frame : 00:15:18:15
Time code source : Group of pictures header
Stream size : 675 MiB (66%)
Audio #1
ID : 189 (0xBD)-137 (0x89)
Format : DTS
Format/Info : Digital Theater Systems
Mode : 16
Format settings, Endianness : Big
Muxing mode : DVD-Video
Duration : 15mn 3s
Bit rate mode : Constant
Bit rate : 1 510 Kbps
Channel(s) : 6 channels
Channel positions : Front: L C R, Side: L R, LFE
Sampling rate : 48.0 KHz
Bit depth : 24 bits
Compression mode : Lossy
Delay relative to video : -397ms
Stream size : 163 MiB (16%)
Audio #2
ID : 189 (0xBD)-160 (0xA0)
Format : PCM
Format settings, Endianness : Big
Format settings, Sign : Signed
Muxing mode : DVD-Video
Duration : 15mn 3s
Bit rate mode : Constant
Bit rate : 1 536 Kbps
Channel(s) : 2 channels
Sampling rate : 48.0 KHz
Bit depth : 16 bits
Delay relative to video : -401ms
Stream size : 165 MiB (16%)
Menu
General
Complete name : D:\Downloads\Tarja Turunen - Act II\DVD4\VIDEO_TS\VTS_01_3.VOB
Format : MPEG-PS
File size : 1 024 MiB
Duration : 15mn 20s
Overall bit rate mode : Variable
Overall bit rate : 9 327 Kbps
Video
ID : 224 (0xE0)
Format : MPEG Video
Format version : Version 2
Format profile : [email protected]
Format settings, BVOP : Yes
Format settings, Matrix : Custom
Format settings, GOP : Variable
Duration : 15mn 20s
Bit rate mode : Variable
Bit rate : 6 096 Kbps
Maximum bit rate : 6 800 Kbps
Width : 720 pixels
Height : 480 pixels
Display aspect ratio : 16:9
Frame rate : 23.976 fps
Standard : NTSC
Color space : YUV
Chroma subsampling : 4:2:0
Bit depth : 8 bits
Scan type : Progressive
Scan order : 2:3 Pulldown
Compression mode : Lossy
Bits/(Pixel*Frame) : 0.736
Time code of first frame : 00:30:21:05
Time code source : Group of pictures header
Stream size : 669 MiB (65%)
Audio #1
ID : 189 (0xBD)-137 (0x89)
Format : DTS
Format/Info : Digital Theater Systems
Mode : 16
Format settings, Endianness : Big
Muxing mode : DVD-Video
Duration : 15mn 20s
Bit rate mode : Constant
Bit rate : 1 510 Kbps
Channel(s) : 6 channels
Channel positions : Front: L C R, Side: L R, LFE
Sampling rate : 48.0 KHz
Bit depth : 24 bits
Compression mode : Lossy
Delay relative to video : -565ms
Stream size : 166 MiB (16%)
Audio #2
ID : 189 (0xBD)-160 (0xA0)
Format : PCM
Format settings, Endianness : Big
Format settings, Sign : Signed
Muxing mode : DVD-Video
Duration : 15mn 20s
Bit rate mode : Constant
Bit rate : 1 536 Kbps
Channel(s) : 2 channels
Sampling rate : 48.0 KHz
Bit depth : 16 bits
Delay relative to video : -570ms
Stream size : 169 MiB (16%)
Menu
General
Complete name : D:\Downloads\Tarja Turunen - Act II\DVD4\VIDEO_TS\VTS_01_4.VOB
Format : MPEG-PS
File size : 1 024 MiB
Duration : 15mn 17s
Overall bit rate mode : Variable
Overall bit rate : 9 359 Kbps
Video
ID : 224 (0xE0)
Format : MPEG Video
Format version : Version 2
Format profile : [email protected]
Format settings, BVOP : Yes
Format settings, Matrix : Custom
Format settings, GOP : Variable
Duration : 15mn 17s
Bit rate mode : Variable
Bit rate : 6 127 Kbps
Maximum bit rate : 6 800 Kbps
Width : 720 pixels
Height : 480 pixels
Display aspect ratio : 16:9
Frame rate : 23.976 fps
Standard : NTSC
Color space : YUV
Chroma subsampling : 4:2:0
Bit depth : 8 bits
Scan type : Progressive
Scan order : 2:3 Pulldown
Compression mode : Lossy
Bits/(Pixel*Frame) : 0.739
Time code of first frame : 00:45:41:14
Time code source : Group of pictures header
Stream size : 670 MiB (65%)
Audio #1
ID : 189 (0xBD)-137 (0x89)
Format : DTS
Format/Info : Digital Theater Systems
Mode : 16
Format settings, Endianness : Big
Muxing mode : DVD-Video
Duration : 15mn 17s
Bit rate mode : Constant
Bit rate : 1 510 Kbps
Channel(s) : 6 channels
Channel positions : Front: L C R, Side: L R, LFE
Sampling rate : 48.0 KHz
Bit depth : 24 bits
Compression mode : Lossy
Delay relative to video : -797ms
Stream size : 165 MiB (16%)
Audio #2
ID : 189 (0xBD)-160 (0xA0)
Format : PCM
Format settings, Endianness : Big
Format settings, Sign : Signed
Muxing mode : DVD-Video
Duration : 15mn 17s
Bit rate mode : Constant
Bit rate : 1 536 Kbps
Channel(s) : 2 channels
Sampling rate : 48.0 KHz
Bit depth : 16 bits
Delay relative to video : -801ms
Stream size : 168 MiB (16%)
Menu
General
Complete name : D:\Downloads\Tarja Turunen - Act II\DVD4\VIDEO_TS\VTS_01_5.VOB
Format : MPEG-PS
File size : 1 024 MiB
Overall bit rate mode : Variable
Video
ID : 224 (0xE0)
Format : MPEG Video
Format version : Version 2
Format profile : [email protected]
Format settings, BVOP : Yes
Format settings, Matrix : Custom
Format settings, GOP : Variable
Bit rate mode : Variable
Maximum bit rate : 6 800 Kbps
Width : 720 pixels
Height : 480 pixels
Display aspect ratio : 16:9
Frame rate : 23.976 fps
Standard : NTSC
Color space : YUV
Chroma subsampling : 4:2:0
Bit depth : 8 bits
Scan type : Progressive
Scan order : 2:3 Pulldown
Compression mode : Lossy
Time code of first frame : 01:00:57:28
Time code source : Group of pictures header
Audio #1
ID : 189 (0xBD)-137 (0x89)
Format : DTS
Format/Info : Digital Theater Systems
Mode : 16
Format settings, Endianness : Big
Muxing mode : DVD-Video
Bit rate mode : Constant
Bit rate : 1 510 Kbps
Channel(s) : 6 channels
Channel positions : Front: L C R, Side: L R, LFE
Sampling rate : 48.0 KHz
Bit depth : 24 bits
Compression mode : Lossy
Delay relative to video : -316ms
Audio #2
ID : 189 (0xBD)-160 (0xA0)
Format : PCM
Format settings, Endianness : Big
Format settings, Sign : Signed
Muxing mode : DVD-Video
Bit rate mode : Constant
Bit rate : 1 536 Kbps
Channel(s) : 2 channels
Sampling rate : 48.0 KHz
Bit depth : 16 bits
Delay relative to video : -321ms
Menu
General
Complete name : D:\Downloads\Tarja Turunen - Act II\DVD4\VIDEO_TS\VTS_01_6.VOB
Format : MPEG-PS
File size : 1 024 MiB
Duration : 15mn 18s
Overall bit rate mode : Variable
Overall bit rate : 9 352 Kbps
Video
ID : 224 (0xE0)
Format : MPEG Video
Format version : Version 2
Format profile : [email protected]
Format settings, BVOP : Yes
Format settings, Matrix : Custom
Format settings, GOP : Variable
Duration : 15mn 18s
Bit rate mode : Variable
Bit rate : 6 120 Kbps
Maximum bit rate : 6 800 Kbps
Width : 720 pixels
Height : 480 pixels
Display aspect ratio : 16:9
Frame rate : 23.976 fps
Standard : NTSC
Color space : YUV
Chroma subsampling : 4:2:0
Bit depth : 8 bits
Scan type : Progressive
Scan order : 2:3 Pulldown
Compression mode : Lossy
Bits/(Pixel*Frame) : 0.739
Time code of first frame : 00:04:21:15
Time code source : Group of pictures header
Stream size : 670 MiB (65%)
Audio #1
ID : 189 (0xBD)-137 (0x89)
Format : DTS
Format/Info : Digital Theater Systems
Mode : 16
Format settings, Endianness : Big
Muxing mode : DVD-Video
Duration : 15mn 18s
Bit rate mode : Constant
Bit rate : 1 510 Kbps
Channel(s) : 6 channels
Channel positions : Front: L C R, Side: L R, LFE
Sampling rate : 48.0 KHz
Bit depth : 24 bits
Compression mode : Lossy
Delay relative to video : -586ms
Stream size : 165 MiB (16%)
Audio #2
ID : 189 (0xBD)-160 (0xA0)
Format : PCM
Format settings, Endianness : Big
Format settings, Sign : Signed
Muxing mode : DVD-Video
Duration : 15mn 18s
Bit rate mode : Constant
Bit rate : 1 536 Kbps
Channel(s) : 2 channels
Sampling rate : 48.0 KHz
Bit depth : 16 bits
Delay relative to video : -584ms
Stream size : 168 MiB (16%)
Menu
General
Complete name : D:\Downloads\Tarja Turunen - Act II\DVD4\VIDEO_TS\VTS_01_7.VOB
Format : MPEG-PS
File size : 1 024 MiB
Duration : 15mn 15s
Overall bit rate mode : Variable
Overall bit rate : 9 383 Kbps
Video
ID : 224 (0xE0)
Format : MPEG Video
Format version : Version 2
Format profile : [email protected]
Format settings, BVOP : Yes
Format settings, Matrix : Custom
Format settings, GOP : Variable
Duration : 15mn 15s
Bit rate mode : Variable
Bit rate : 6 151 Kbps
Maximum bit rate : 6 800 Kbps
Width : 720 pixels
Height : 480 pixels
Display aspect ratio : 16:9
Frame rate : 23.976 fps
Standard : NTSC
Color space : YUV
Chroma subsampling : 4:2:0
Bit depth : 8 bits
Scan type : Progressive
Scan order : 2:3 Pulldown
Compression mode : Lossy
Bits/(Pixel*Frame) : 0.742
Time code of first frame : 00:19:38:28
Time code source : Group of pictures header
Stream size : 671 MiB (66%)
Audio #1
ID : 189 (0xBD)-137 (0x89)
Format : DTS
Format/Info : Digital Theater Systems
Mode : 16
Format settings, Endianness : Big
Muxing mode : DVD-Video
Duration : 15mn 15s
Bit rate mode : Constant
Bit rate : 1 510 Kbps
Channel(s) : 6 channels
Channel positions : Front: L C R, Side: L R, LFE
Sampling rate : 48.0 KHz
Bit depth : 24 bits
Compression mode : Lossy
Delay relative to video : -425ms
Stream size : 165 MiB (16%)
Audio #2
ID : 189 (0xBD)-160 (0xA0)
Format : PCM
Format settings, Endianness : Big
Format settings, Sign : Signed
Muxing mode : DVD-Video
Duration : 15mn 15s
Bit rate mode : Constant
Bit rate : 1 536 Kbps
Channel(s) : 2 channels
Sampling rate : 48.0 KHz
Bit depth : 16 bits
Delay relative to video : -426ms
Stream size : 168 MiB (16%)
Menu
General
Complete name : D:\Downloads\Tarja Turunen - Act II\DVD4\VIDEO_TS\VTS_01_8.VOB
Format : MPEG-PS
File size : 810 MiB
Duration : 11mn 50s
Overall bit rate mode : Variable
Overall bit rate : 9 562 Kbps
Video
ID : 224 (0xE0)
Format : MPEG Video
Format version : Version 2
Format profile : [email protected]
Format settings, BVOP : Yes
Format settings, Matrix : Custom
Format settings, GOP : Variable
Duration : 11mn 50s
Bit rate mode : Variable
Bit rate : 6 326 Kbps
Maximum bit rate : 6 800 Kbps
Width : 720 pixels
Height : 480 pixels
Display aspect ratio : 16:9
Frame rate : 23.976 fps
Standard : NTSC
Color space : YUV
Chroma subsampling : 4:2:0
Bit depth : 8 bits
Scan type : Progressive
Scan order : 2:3 Pulldown
Compression mode : Lossy
Bits/(Pixel*Frame) : 0.763
Time code of first frame : 00:34:53:20
Time code source : Group of pictures header
Stream size : 536 MiB (66%)
Audio #1
ID : 189 (0xBD)-137 (0x89)
Format : DTS
Format/Info : Digital Theater Systems
Mode : 16
Format settings, Endianness : Big
Muxing mode : DVD-Video
Duration : 11mn 50s
Bit rate mode : Constant
Bit rate : 1 510 Kbps
Channel(s) : 6 channels
Channel positions : Front: L C R, Side: L R, LFE
Sampling rate : 48.0 KHz
Bit depth : 24 bits
Compression mode : Lossy
Delay relative to video : -622ms
Stream size : 128 MiB (16%)
Audio #2
ID : 189 (0xBD)-160 (0xA0)
Format : PCM
Format settings, Endianness : Big
Format settings, Sign : Signed
Muxing mode : DVD-Video
Duration : 11mn 50s
Bit rate mode : Constant
Bit rate : 1 536 Kbps
Channel(s) : 2 channels
Sampling rate : 48.0 KHz
Bit depth : 16 bits
Delay relative to video : -620ms
Stream size : 130 MiB (16%)
[Профиль]  [ЛС] 

CHKA1961

Moderator gray

Стаж: 11 лет 5 месяцев

Сообщений: 6905

CHKA1961 · 13-Сен-18 03:05 (спустя 1 месяц 5 дней)

[Цитировать] 

Добавлен 4-й DVD, созданный из бонусного Блюрея.
Скачайте пожалуйста новый торрент-файл.
[Профиль]  [ЛС] 

Igortaichi

Стаж: 8 лет 8 месяцев

Сообщений: 162

Igortaichi · 11-Окт-18 14:06 (спустя 28 дней)

[Цитировать] 

А ковриков нету?
[Профиль]  [ЛС] 

CHKA1961

Moderator gray

Стаж: 11 лет 5 месяцев

Сообщений: 6905

CHKA1961 · 18-Окт-18 01:00 (спустя 6 дней)

[Цитировать] 

Igortaichi писал(а):
76112841А ковриков нету?
Шо, опять?
Позволю себе самоцитирование.
1. http://rutracker.org/forum/viewtopic.php?t=3503904
Цитата:
Для постоянных просителей сканов
Не надо засорять раздачи своими оффтопами, вам предлагается несколько вариантов.
Вариант первый, для умеющих читать и понимающих прочитанное
Заходим в любой поисковик, набираем словосочетание графический редактор, выбираем понравившийся, осваиваем и рисуем самостоятельно.
Вариант второй, для неумеющих читать, но понимающих прочитанное
Скачиваем http://rutracker.org/forum/viewtopic.php?t=3114601 , изучаем и понимаем, что это самодельный DVD, к которому не существует официальных ковриков-блинчиков. Затем переходим к первому варианту и продолжаем самообучение.
Вариант третий, для неумеющих читать и нежелающих учиться
Для начала решаем, что действительно относимся к данной категории.
Если решили, то сюда
Случай конечно тяжёлый, но вероятно ещё излечимый. Может ещё раз обдумаем?
Если даже думать лень, то получите
2. http://rutracker.org/forum/viewtopic.php?t=4643093
Цитата:
Хочуковрикам
Если использовать Google, то получится так: коврик и блинчик
Если использовать Microsoft Paint, то получится так: коврик и блинчик
[Профиль]  [ЛС] 

detoxdetox

Стаж: 6 лет 6 месяцев

Сообщений: 95


detoxdetox · 23-Окт-18 13:53 (спустя 5 дней)

[Цитировать] 

Лучше бы кто-нибудь сделал рип mkv 1080 этого замечательного BD!
[Профиль]  [ЛС] 

peters44

Стаж: 8 лет 9 месяцев

Сообщений: 217


peters44 · 06-Ноя-18 17:47 (спустя 14 дней, ред. 06-Ноя-18 17:47)

[Цитировать] 

Спасибо!все ОК!
[Профиль]  [ЛС] 
 
Ответить
Loading...
Error