Сакральные игры / Sacred Games / Сезон: 1 / Серии: 1-8 из 8 (Анураг Кашьяп, Викрамадитья Мотване) [2018, Индия, США, Драма, Криминал, WEBRip] DVO (Gears Media) + Original

Страницы:  1

Ответить
Автор
Сообщение

T_A_R

Стаж: 6 лет 8 месяцев

Сообщений: 814


T_A_R · 25-Июл-18 21:22 (4 месяца 17 дней назад, ред. 26-Июл-18 14:40)

Сакральные игры / Sacred Games
Год выпуска: 2018
Страна: Индия, США
Жанр: Драма, Криминал
Продолжительность: ~00:50:00
Перевод: Профессиональный (двухголосый закадровый) Gears Media
Режиссёр: Анураг Кашьяп, Викрамадитья Мотване
В ролях: Навазуддин Сиддикуи, Саиф Али Кхан, Нааз Норози, Анупурия Гоенка, Радхика Апте, Амир Башир, Раджшри Дешпанде, Гириш Диксит, Нирадж Каби, Люк Кенни
Описание: Современный Мумбаи погряз в коррупции и преступности, и честному человеку там места нет. После внезапного увольнения полицейский детектив оказывается втянут в грязные подпольные дела, и его судьба теперь тесно связана с главным криминальным авторитетом города.
Ссылка на предыдущие и альтернативные раздачи: http://rutracker.org/forum/tracker.php?g=latin_serials&nm=Sacred+Games
Сэмпл: http://multi-up.com/1204658
Качество: WEBRip
Формат: AVI
Видео: XviD, 720x400 at 25.000 fps, ~1400 kbps avg
Аудио1: Russian, MP3, 48 kHz, 2 ch, 128 kbps
Аудио2: English, MP3, 48 kHz, 2 ch, 128 kbps
Субтитры: нет
Реклама: аудио (два раза, в начале и конце, по 12 сек.)
MediaInfo
Format : AVI
Format/Info : Audio Video Interleave
File size : 617 MiB
Duration : 51 min 18 s
Overall bit rate : 1 681 kb/s
Writing application : Lavf57.29.101
Video
ID : 0
Format : xvid
Codec ID : xvid
Duration : 51 min 18 s
Bit rate : 1 405 kb/s
Width : 720 pixels
Height : 400 pixels
Display aspect ratio : 16:9
Frame rate : 25.000 FPS
Scan type : Progressive
Bits/(Pixel*Frame) : 0.195
Stream size : 515 MiB (84%)
Audio #1
ID : 1
Format : MPEG Audio
Format version : Version 1
Format profile : Layer 3
Format settings : Joint stereo / MS Stereo
Codec ID : 55
Codec ID/Hint : MP3
Duration : 51 min 18 s
Bit rate mode : Constant
Bit rate : 128 kb/s
Channel(s) : 2 channels
Sampling rate : 48.0 kHz
Compression mode : Lossy
Stream size : 47.0 MiB (8%)
Alignment : Aligned on interleaves
Interleave, duration : 24 ms (0.60 video frame)
Interleave, preload duratio : 24 ms
Title : Gears Media
Writing library : LAME3.99.5
Audio #2
ID : 2
Format : MPEG Audio
Format version : Version 1
Format profile : Layer 3
Format settings : Joint stereo / MS Stereo
Codec ID : 55
Codec ID/Hint : MP3
Duration : 51 min 18 s
Bit rate mode : Constant
Bit rate : 128 kb/s
Channel(s) : 2 channels
Sampling rate : 48.0 kHz
Compression mode : Lossy
Stream size : 47.0 MiB (8%)
Alignment : Aligned on interleaves
Interleave, duration : 24 ms (0.60 video frame)
Interleave, preload duratio : 24 ms
Title : English
Скриншоты
Внимание! Раздача ведётся путём добавления новых серий
Внимание! Раздача ведётся путём добавления новых серий; при каждом добавлении создаётся новый торрент. Чтобы начать докачку новой серии, пользователям необходимо сделать следующее:
(1) остановить скачивание,
(2) удалить старый торрент у себя из клиента (старые серии удалять не надо),
(3) скачать новый торрент и запустить его у себя в клиенте вместо старого, при этом указать клиенту путь в старую папку куда и должно происходить скачивание новых серий.
Ваш клиент при этом должен произвести хеширование (проверку) старой папки (если не производит сам - помогите ему сделать это), и будет докачивать только те серии которых у вас ещё нет. Старые серии при этом не удаляются, а продолжают раздаваться!
Eсли вы уже удалили старые серии, то предотвратить повторную закачку старых серий можно, отжав галочку в соответствующих местах при запуске нового торрента. По возможности, желательно не удалять старые серии как можно дольше чтобы релизёр не столько продолжал раздавать старые серии, а смог сконцентрироваться на новых.
Download
Для скачивания .torrent файлов необходима регистрация
Сайт не распространяет и не хранит электронные версии произведений, а лишь предоставляет доступ к создаваемому пользователями каталогу ссылок на торрент-файлы, которые содержат только списки хеш-сумм
[Профиль]  [ЛС] 

Wentworth_Miller

Помощник модератора

Стаж: 9 лет 9 месяцев

Сообщений: 5733

Wentworth_Miller · 25-Июл-18 21:27 (спустя 4 мин.)

[Цитировать] 

Отсутствуют настройки кодирования
черные полосы
T_A_R писал(а):
75717707Writing application : Lavf57.29.101
Реклама
# Сомнительно

[Профиль]  [ЛС] 

bot · 30-Июл-18 21:59 (спустя 5 дней)

Тема была перенесена из форума Зарубежные сериалы в форум Сериалы Индии
Celta88
 

bot · 23-Сен-18 02:49 (спустя 1 месяц 28 дней)

Тема была перенесена из форума Сериалы Индии в форум Сериалы совместного производства
Celta88
 
 
Ответить
Loading...
Error