Норвежский вояж / A Norway Passage: The Most Beautiful Voyage [2012, документальный, HDTV 720p]

Страницы:  1

Ответить
Автор
Сообщение

karatak1

Стаж: 9 лет

Сообщений: 574


karatak1 · 15-Июл-18 17:47 (1 месяц 2 дня назад, ред. 15-Июл-18 17:49)

Норвежский вояж / A Norway Passage: The Most Beautiful Voyage
Год выпуска: 2012
Страна: Норвегия
Студия: NRK
Жанр: документальный
Продолжительность: 00:59:01
Перевод: Профессиональный (двухголосый закадровый)
Доп. инфо о переводе: видео фильм
Русские субтитры: нет
Описание: В июне 2011 года национальная телекомпания Норвегии выпустила замечательную программу под названием "Minutt for Minutt", рассказывающую о корабле Hurtigruten Nordnorge, съемка на котором велась 24 часа в сутки. Корабль совершил круиз на 1100 миль вдоль побережья Норвегии. Миллионы норвежцев посмотрели этот фильм. Тысячи людей пришли, чтобы поприветствовать корабль и отправить его в плавание. Эта программа лишь маленькая часть этого удивительного шестидневного путешествия.
Сэмпл: https://yadi.sk/i/l3AyaWqa3ZCBvg
Тип релиза: HDTV 720p
Контейнер: TS
Видео: AVC, PAL, 1280x720, 16x9, 6016 Кbps, 25fps
Аудио: Русский, MP2, 2Ch, 48KHz, 128 kbps
MediaInfo
Общее
Идентификатор : 1 (0x1)
Полное имя : H:\Норвежский вояж 2012NRK.ts
Формат : MPEG-TS
Размер файла : 2,67 Гбайт
Продолжительность : 59 м. 1 с.
Режим общего битрейта : Переменный
Общий поток : 6465 Кбит/сек
Видео
Идентификатор : 256 (0x100)
Идентификатор меню : 1 (0x1)
Формат : AVC
Формат/Информация : Advanced Video Codec
Профиль формата : [email protected]
Настройки формата : 3 Ref Frames
Параметр CABAC формата : Нет
Параметр RefFrames формата : 3 кадра
Параметр GOP формата : M=1, N=12
Идентификатор кодека : 27
Продолжительность : 59 м. 1 с.
Битрейт : 6016 Кбит/сек
Ширина : 1280 пикселей
Высота : 720 пикселей
Соотношение сторон : 16:9
Режим частоты кадров : Переменный
Цветовое пространство : YUV
Субдискретизация насыщенности : 4:2:0
Битовая глубина : 8 бит
Тип развёртки : Прогрессивная
Размер потока : 2,48 Гбайт (93%)
Аудио
Идентификатор : 257 (0x101)
Идентификатор меню : 1 (0x1)
Формат : MPEG Audio
Версия формата : Version 1
Профиль формата : Layer 2
Идентификатор кодека : 3
Продолжительность : 59 м. 1 с.
Вид битрейта : Постоянный
Битрейт : 128 Кбит/сек
Каналы : 2 канала
Частота : 48,0 КГц
Частота кадров : 41,667 кадра/сек (1152 SPF)
Метод сжатия : С потерями
Размер потока : 54,0 Мбайт (2%)
Язык : English
Скриншоты
Download
Для скачивания .torrent файлов необходима регистрация
Сайт не распространяет и не хранит электронные версии произведений, а лишь предоставляет доступ к создаваемому пользователями каталогу ссылок на торрент-файлы, которые содержат только списки хеш-сумм
[Профиль]  [ЛС] 

karatak1

Стаж: 9 лет

Сообщений: 574


karatak1 · 16-Июл-18 15:40 (спустя 21 час, ред. 08-Авг-18 15:44)

[Цитировать] 

Норвежский вояж mini https://yadi.sk/i/xII2sUWS3a2kH2
[Профиль]  [ЛС] 
 
Ответить
Loading...
Error