Экстремальный водный туризм на Северном Кавказе (Алексей Старченко) [2013, документальный, HDTV 1080i]

Страницы:  1

Ответить
Автор
Сообщение

karatak1

Стаж: 9 лет 3 месяца

Сообщений: 607


karatak1 · 10-Июл-18 17:22 (4 месяца 8 дней назад)

Экстремальный водный туризм на Северном Кавказе
Год выпуска: 2013
Страна: Россия
Студия: RTG TV
Жанр: документальный
Продолжительность: 00:22:51
Перевод: Не требуется
Режиссер: Алексей Старченко
Описание: Северный Кавказ богат водными маршрутами для туристов. Одни позволяют совершить неспешные путешествия, другие - требуют профессиональных навыков и серьезной физической подготовки. История "обручения с водой" из уст профессиональных рафтеров, чьи жизни после знакомства с реками Кавказа изменились навсегда.
Тип релиза: HDTV 1080i
Контейнер: TS
Видео: AVC, PAL, 1920x1080, 16x9, 11Мбит/сек, 25fps
Аудио: Русский, MP2, 2Ch, 48KHz, 192kbps
MediaInfo
Общее
Идентификатор : 1 (0x1)
Полное имя : H:\Экстремальный водный туризм на Северном Кавказе(RTG2013) (02).ts
Формат : MPEG-TS
Размер файла : 1,89 Гбайт
Продолжительность : 22 м. 51 с.
Режим общего битрейта : Переменный
Общий поток : 11,8 Мбит/сек
Видео
Идентификатор : 256 (0x100)
Идентификатор меню : 1 (0x1)
Формат : AVC
Формат/Информация : Advanced Video Codec
Профиль формата : [email protected]
Настройки формата : CABAC / 4 Ref Frames
Параметр CABAC формата : Да
Параметр RefFrames формата : 4 кадра
Идентификатор кодека : 27
Продолжительность : 22 м. 51 с.
Битрейт : 11,1 Мбит/сек
Ширина : 1920 пикселей
Высота : 1080 пикселей
Соотношение сторон : 16:9
Частота кадров : 25,000 кадров/сек
Стандарт вещания : Component
Цветовое пространство : YUV
Субдискретизация насыщенности : 4:2:0
Битовая глубина : 8 бит
Тип развёртки : Чересстрочная
Метод сохранения типа развёртки : Раздельные поля
Порядок развёртки : Верхнее поле первое
Бит/(Пиксели*Кадры) : 0.213
Размер потока : 1,77 Гбайт (93%)
Цветовой диапазон : Limited
Основные цвета : BT.709
Характеристики трансфера : BT.709
Коэффициенты матрицы : BT.709
Аудио
Идентификатор : 257 (0x101)
Идентификатор меню : 1 (0x1)
Формат : MPEG Audio
Версия формата : Version 1
Профиль формата : Layer 2
Идентификатор кодека : 3
Продолжительность : 22 м. 51 с.
Вид битрейта : Постоянный
Битрейт : 192 Кбит/сек
Каналы : 2 канала
Частота : 48,0 КГц
Частота кадров : 41,667 кадра/сек (1152 SPF)
Метод сжатия : С потерями
Размер потока : 31,4 Мбайт (2%)
Язык : Russian
Скриншоты
Download
Для скачивания .torrent файлов необходима регистрация
Сайт не распространяет и не хранит электронные версии произведений, а лишь предоставляет доступ к создаваемому пользователями каталогу ссылок на торрент-файлы, которые содержат только списки хеш-сумм
[Профиль]  [ЛС] 
 
Ответить
Loading...
Error