Реки Среднего Урала (Сергей Ермоленко) [2013, документальный, HDTV 1080i]

Страницы:  1

Ответить
Автор
Сообщение

karatak1

Стаж: 9 лет

Сообщений: 577


karatak1 · 02-Июл-18 18:00 (1 месяц 19 дней назад)

Реки Среднего Урала
Год выпуска: 2013
Страна: Россия
Студия: RTG TV
Жанр: документальный
Продолжительность: 00:23:41
Перевод: Не требуется
Режиссер: Сергей Ермоленко
Описание: Реки Среднего Урала характерны медленным, спокойным течением. В долинах их часто встречаются береговые утесы, называемые "бойцами" или "камнями".
Тип релиза: HDTV 1080i
Контейнер: TS
Видео: AVC, PAL, 1920x1080, 16x9, 8380 Кbps, 25fps
Аудио: Русский, MP2, 2Ch, 48KHz, 192kbps
MediaInfo
Общее
Идентификатор : 1 (0x1)
Полное имя : H:\Реки Среднего Урала (RTG2013).ts
Формат : MPEG-TS
Размер файла : 1,49 Гбайт
Продолжительность : 23 м. 41 с.
Режим общего битрейта : Переменный
Общий поток : 9019 Кбит/сек
Видео
Идентификатор : 202 (0xCA)
Идентификатор меню : 20102 (0x4E86)
Формат : AVC
Формат/Информация : Advanced Video Codec
Профиль формата : [email protected]
Настройки формата : CABAC / 4 Ref Frames
Параметр CABAC формата : Да
Параметр RefFrames формата : 4 кадра
Идентификатор кодека : 27
Продолжительность : 23 м. 41 с.
Битрейт : 8380 Кбит/сек
Ширина : 1920 пикселей
Высота : 1080 пикселей
Соотношение сторон : 16:9
Частота кадров : 25,000 кадров/сек
Стандарт вещания : Component
Цветовое пространство : YUV
Субдискретизация насыщенности : 4:2:0
Битовая глубина : 8 бит
Тип развёртки : Чересстрочная
Метод сохранения типа развёртки : Раздельные поля
Порядок развёртки : Верхнее поле первое
Бит/(Пиксели*Кадры) : 0.162
Размер потока : 1,39 Гбайт (93%)
Цветовой диапазон : Limited
Основные цвета : BT.709
Характеристики трансфера : BT.709
Коэффициенты матрицы : BT.709
Аудио
Идентификатор : 302 (0x12E)
Идентификатор меню : 20102 (0x4E86)
Формат : MPEG Audio
Версия формата : Version 1
Профиль формата : Layer 2
Идентификатор кодека : 3
Продолжительность : 23 м. 41 с.
Вид битрейта : Постоянный
Битрейт : 192 Кбит/сек
Каналы : 2 канала
Частота : 48,0 КГц
Частота кадров : 41,667 кадра/сек (1152 SPF)
Метод сжатия : С потерями
Задержка видео : -40 мс.
Размер потока : 32,5 Мбайт (2%)
Язык : Russian
Скриншоты
Download
Для скачивания .torrent файлов необходима регистрация
Сайт не распространяет и не хранит электронные версии произведений, а лишь предоставляет доступ к создаваемому пользователями каталогу ссылок на торрент-файлы, которые содержат только списки хеш-сумм
[Профиль]  [ЛС] 
 
Ответить
Loading...
Error