Большое австралийское приключение (Виктория) / Coast Australia (Jane Manning/Джейн Манинг) [2017, документальный, HDTV 1080i]

Страницы:  1

Ответить
Автор
Сообщение

karatak1

Стаж: 9 лет 2 месяца

Сообщений: 592


karatak1 · 17-Июн-18 17:01 (4 месяца 2 дня назад)

Большое австралийское приключение (Виктория) / Coast Australia
Год выпуска: 2017
Страна: United Kingdom
Студия: BBC Two
Жанр: документальный
Продолжительность: 00:50:47
Перевод: Профессиональный (многоголосый закадровый)
Режиссер: Jane Manning/Джейн Манинг
Описание: 89% австралийцев живёт в городах. А больше всего городов в Австралии находится неподалёку от побережья. Журналист Нэйл Оливер вместе с энтузиастами отправляется в путешествие вдоль берегов Австралии. Вместе они узнают много нового об истории и географии этих мест. Их ждут потрясающие пейзажи и интересные встречи с людьми.
Сэмпл: https://yadi.sk/i/0jXtzUKo3Y2P4A
Тип релиза: HDTV 1080i
Контейнер: TS
Видео: AVC, PAL, 1920x1080, 16x9, 6908 Кbps, 25fps
Аудио: Русский, MP2, 2Ch, 48KHz, 192kbps
MediaInfo
Общее
Идентификатор : 1 (0x1)
Полное имя : H:\Большое Aвстралийское Приключение (Виктория).ts
Формат : MPEG-TS
Размер файла : 2,65 Гбайт
Продолжительность : 50 м. 47 с.
Режим общего битрейта : Переменный
Общий поток : 7471 Кбит/сек
Видео
Идентификатор : 256 (0x100)
Идентификатор меню : 1 (0x1)
Формат : AVC
Формат/Информация : Advanced Video Codec
Профиль формата : [email protected]
Настройки формата : CABAC / 4 Ref Frames
Параметр CABAC формата : Да
Параметр RefFrames формата : 4 кадра
Идентификатор кодека : 27
Продолжительность : 50 м. 47 с.
Битрейт : 6908 Кбит/сек
Ширина : 1920 пикселей
Высота : 1080 пикселей
Соотношение сторон : 16:9
Частота кадров : 25,000 кадров/сек
Цветовое пространство : YUV
Субдискретизация насыщенности : 4:2:0
Битовая глубина : 8 бит
Тип развёртки : MBAFF
Метод сохранения типа развёртки : Чередующиеся поля
Порядок развёртки : Верхнее поле первое
Бит/(Пиксели*Кадры) : 0.133
Размер потока : 2,45 Гбайт (92%)
Аудио
Идентификатор : 257 (0x101)
Идентификатор меню : 1 (0x1)
Формат : MPEG Audio
Версия формата : Version 1
Профиль формата : Layer 2
Идентификатор кодека : 3
Продолжительность : 50 м. 47 с.
Вид битрейта : Постоянный
Битрейт : 192 Кбит/сек
Каналы : 2 канала
Частота : 48,0 КГц
Частота кадров : 41,667 кадра/сек (1152 SPF)
Метод сжатия : С потерями
Задержка видео : -80 мс.
Размер потока : 69,8 Мбайт (3%)
Язык : Russian
Download
Для скачивания .torrent файлов необходима регистрация
Сайт не распространяет и не хранит электронные версии произведений, а лишь предоставляет доступ к создаваемому пользователями каталогу ссылок на торрент-файлы, которые содержат только списки хеш-сумм
[Профиль]  [ЛС] 

Johnsik1978

Стаж: 8 лет 7 месяцев

Сообщений: 4


Johnsik1978 · 21-Июл-18 04:13 (спустя 1 месяц 3 дня)

[Цитировать] 

Зачем-то отрезали оригинальную звуковую дорожку. Лучше смотреть в оригинале и с субтитрами, чем слушать косяки переводчиков. Спасибо за раздачу тем не менее.
[Профиль]  [ЛС] 

JeReming

Стаж: 7 лет 7 месяцев

Сообщений: 164

JeReming · 18-Авг-18 03:29 (спустя 27 дней)

[Цитировать] 

Кино хорошее, но оно должно называться «Несколько интересных мест на побережьи австралийского штата Виктория».
[Профиль]  [ЛС] 

karatak1

Стаж: 9 лет 2 месяца

Сообщений: 592


karatak1 · 18-Авг-18 15:01 (спустя 11 часов)

[Цитировать] 

JeReming писал(а):
75825737Кино хорошее, но оно должно называться «Несколько интересных мест на побережьи австралийского штата Виктория».
Разве кто-то запрещает самому менять название ? В своём собственном компютере вы царь и бог - делайте что душа пожелает...
Или вы считаете что мне ещё и переводом названий надо заниматься, пишем как в программе тв, ни больше ни меньше!
[Профиль]  [ЛС] 

JeReming

Стаж: 7 лет 7 месяцев

Сообщений: 164

JeReming · 18-Авг-18 20:48 (спустя 5 часов)

[Цитировать] 

karatak1 писал(а):
Или вы считаете что мне ещё и переводом названий надо заниматься
Нет, конечно. Спасибо за раздачу.
[Профиль]  [ЛС] 

loversbelost

Стаж: 3 года 3 месяца

Сообщений: 51


loversbelost · 18-Окт-18 00:49 (спустя 1 месяц 30 дней)

[Цитировать] 

Хорошая динамичная документалка. Снято с уважением к природе и истории Австралии.
[Профиль]  [ЛС] 
 
Ответить
Loading...
Error