Большой бенефис Елены Степаненко «Весёлая, красивая» (Эфир от 08.03.2018) [2018, Pop, HDTV 1080i] [Россия 1 HD]

Страницы:  1

Ответить
Автор
Сообщение

nokia5150

Стаж: 7 лет 7 месяцев

Сообщений: 730

nokia5150 · 08-Мар-18 22:09 (9 месяцев назад)

Большой бенефис Елены Степаненко «Весёлая, красивая» Страна: Россия
Жанр: Юмор
Продолжительность: 01:48:45
Год выпуска: 2018 г.
Перевод: Не требуется
Телеканал: Россия HD
Выпущено: Россия, ФГУП «ВГТРК».
Описание: Бенефис самой зажигательной звезды сцены и телеэкрана Елены Степаненко – прекрасная возможность весело отметить первый весенний праздник!
В гости к любимой актрисе пришли самые яркие звезды. Именно они составят ей компанию на сцене. Вместе с Еленой Воробей сегодняшняя героиня отправится на "Шоппинг" выбирать подарок мужу на день рождения, а с "Новыми русскими бабками" решит, что хочет в подарок сама. В компании с Андреем Малаховым они расскажут всю правду о "Прямом эфире", а с Сосо Павлиашвили споют о том, что "Радоваться" необходимо абсолютно всем.
Также сегодня на сцене: Максим Галкин, Николай Басков, Хор Турецкого, Стас Дужников и многие другие.
Ведущие: Сергей Дроботенко, Юрий Аскаров, Юрий Гальцев.
Источник: Собственный рип
Доп. информация: Рип чистый. Без посторонних надписей. Выкладывается как есть.

Качество: HDTV
Разрешение видео/развертка: 1080i
Контейнер: TS
Видео кодек: H.264
Аудио кодек: MP2
Видео: H.264 (AVC), 1920x1080 (16:9) 25.000 fps ~13.6 Mb/s
Аудио: MPEG Audio 48000Hz stereo 2 channels 192 Кбит/сек
Скринлист:
Скриншоты
Отчёт MediaInfo / BDInfo
Общее
Идентификатор : 1 (0x1)
Полное имя : D:\Раздачи\Концерт\Большой бенефис Елены Степаненко «Весёлая, красивая» (2018, HDTV 1080i, Эфир от 08.03.2018) (by Nokia5150).ts
Формат : MPEG-TS
Размер файла : 11,0 Гбайт
Продолжительность : 1 ч. 48 м.
Режим общего битрейта : Переменный
Общий поток : 14,5 Мбит/сек
Видео
Идентификатор : 8000 (0x1F40)
Идентификатор меню : 20106 (0x4E8A)
Формат : AVC
Формат/Информация : Advanced Video Codec
Профиль формата : [email protected]
Настройки формата : CABAC / 4 Ref Frames
Параметр CABAC формата : Да
Параметр RefFrames формата : 4 кадра
Идентификатор кодека : 27
Продолжительность : 1 ч. 48 м.
Битрейт : 13,6 Мбит/сек
Ширина : 1920 пикселей
Высота : 1080 пикселей
Соотношение сторон : 16:9
Частота кадров : 25,000 кадров/сек
Стандарт вещания : Component
Цветовое пространство : YUV
Субдискретизация насыщенности : 4:2:0
Битовая глубина : 8 бит
Тип развёртки : Чересстрочная
Метод сохранения типа развёртки : Раздельные поля
Порядок развёртки : Верхнее поле первое
Бит/(Пиксели*Кадры) : 0.262
Размер потока : 10,3 Гбайт (94%)
Цветовой диапазон : Limited
Основные цвета : BT.709
Характеристики трансфера : BT.709
Коэффициенты матрицы : BT.709
Аудио
Идентификатор : 8001 (0x1F41)
Идентификатор меню : 20106 (0x4E8A)
Формат : MPEG Audio
Версия формата : Version 1
Профиль формата : Layer 2
Идентификатор кодека : 3
Продолжительность : 1 ч. 48 м.
Вид битрейта : Постоянный
Битрейт : 192 Кбит/сек
Каналы : 2 канала
Частота : 48,0 КГц
Метод сжатия : С потерями
Задержка видео : -120 мс.
Размер потока : 149 Мбайт (1%)
Язык : Russian

Download
Для скачивания .torrent файлов необходима регистрация
Сайт не распространяет и не хранит электронные версии произведений, а лишь предоставляет доступ к создаваемому пользователями каталогу ссылок на торрент-файлы, которые содержат только списки хеш-сумм
[Профиль]  [ЛС] 
 
Ответить
Loading...
Error