Flamenco, Flamenco [2012, Flamenco, Documentary, BDRip 720p]

Страницы:  1

Ответить
Автор
Сообщение

anbelk27

Admin

Стаж: 9 лет 4 месяца

Сообщений: 5934

anbelk27 · 24-Фев-18 21:16 (5 месяцев 20 дней назад)

Flamenco, Flamenco
Страна: Испания
Жанр: Flamenco, Documentary
Продолжительность: 01:40:14
Год выпуска: 2012
Лейбл: General de Produssiones y Dizeño
Режиссер и сценарий: Carlos Saura
Описание: Сара Барас, Пако Де Лючия, Мигель Кармона Хосе в фильме Карлоса Саура "Фламенко, фламенко".
Со времен постановки "Кармен" имя Карлоса Сауры не покидает списков великих режиссеров всех времен и народов. Карлос Саура навсегда занял почетное место в истории кино, соединив живопись, музыку и кинематограф.
"Фламенко, фламенко" - новый фильм мастера, где историю фламенко воссоздают гениальные танцоры Сара Барас и Хосе Мигель Кармона. Безусловным украшением фильма, как и в постановке "Кармен", стало участие Пако де Лусия, одного из самых известных в мире испанских гитаристов - исполнителей фламенко.
Треклист:
1. Rumba
2. Alegría
3. Soleá Por Bulerías
4. Cartagenera Y Bulerías
5. Garrotín
6. Copla Por Bulería
7. Soleá
8. Saeta
9. Marcha Processional
10. Martinete Y Toná
11. Bulería
12. Silencio
13. Guajira
14. Alegría
15. Tangos
16. El Tiempo
17. La Leyenda Del Tiempo
18. Cancióm De Cuna
19. Zapateao
20. Bulería Por Soleá
21. Bulería De Jerez
Источник Flamenco, Flamenco [2012, Flamenco, Documentary, Blu-ray 1080p]
Разбивка на главы по трекам: есть
Качество : BDRip 720p
Формат: MKV
Видео кодек: H.264
Аудио кодек: DTS
Видео: AVC, 1280x688 (1.852), 24.000 fps, 4 000 Kbps
Аудио#1: DTS, 48.0 KHz, 6 ch, 1 510 Kbps
Mediainfo/x264Log
x264Log
[Information] [22.02.2018 22:01:36] Standard error stream
-[Information] [22.02.2018 22:02:58] raw [info]: 1280x688p 5977:6000 @ 24/1 fps (cfr)
-[Information] [22.02.2018 22:02:58] x264 [info]: using SAR=5977/6000
-[Information] [22.02.2018 22:02:58] x264 [info]: using cpu capabilities: MMX2 SSE2Fast SSSE3 SSE4.2 AVX
-[Information] [22.02.2018 22:02:58] x264 [info]: profile High, level 4.1
-[Information] [23.02.2018 7:06:52] x264 [info]: frame I:713 Avg QP:14.63 size:131731
-[Information] [23.02.2018 7:06:52] x264 [info]: frame P:33776 Avg QP:18.00 size: 42721
-[Information] [23.02.2018 7:06:52] x264 [info]: frame B:109855 Avg QP:21.55 size: 13380
-[Information] [23.02.2018 7:06:52] x264 [info]: consecutive B-frames: 2.3% 4.4% 10.2% 22.4% 13.6% 42.7% 2.0% 0.6% 0.6% 0.2% 0.9%
-[Information] [23.02.2018 7:06:52] x264 [info]: mb I I16..4: 9.1% 65.2% 25.6%
-[Information] [23.02.2018 7:06:52] x264 [info]: mb P I16..4: 0.8% 7.9% 2.5% P16..4: 31.6% 35.1% 12.0% 2.5% 0.4% skip: 7.3%
-[Information] [23.02.2018 7:06:52] x264 [info]: mb B I16..4: 0.1% 1.8% 0.5% B16..8: 36.4% 19.0% 2.9% direct: 3.5% skip:35.8% L0:44.0% L1:44.7% BI:11.3%
-[Information] [23.02.2018 7:06:52] x264 [info]: 8x8 transform intra:71.7% inter:59.6%
-[Information] [23.02.2018 7:06:52] x264 [info]: direct mvs spatial:97.1% temporal:2.9%
-[Information] [23.02.2018 7:06:52] x264 [info]: coded y,uvDC,uvAC intra: 88.1% 82.3% 56.4% inter: 18.8% 21.2% 7.0%
-[Information] [23.02.2018 7:06:52] x264 [info]: i16 v,h,dc,p: 41% 9% 6% 44%
-[Information] [23.02.2018 7:06:52] x264 [info]: i8 v,h,dc,ddl,ddr,vr,hd,vl,hu: 19% 5% 6% 8% 12% 14% 11% 14% 11%
-[Information] [23.02.2018 7:06:52] x264 [info]: i4 v,h,dc,ddl,ddr,vr,hd,vl,hu: 36% 4% 3% 7% 10% 14% 8% 11% 7%
-[Information] [23.02.2018 7:06:52] x264 [info]: i8c dc,h,v,p: 34% 21% 25% 20%
-[Information] [23.02.2018 7:06:52] x264 [info]: Weighted P-Frames: Y:4.2% UV:2.2%
-[Information] [23.02.2018 7:06:52] x264 [info]: ref P L0: 47.7% 9.1% 17.3% 7.1% 5.9% 4.2% 3.7% 2.3% 2.3% 0.2% 0.0%
-[Information] [23.02.2018 7:06:52] x264 [info]: ref B L0: 76.3% 10.4% 5.4% 2.9% 2.0% 1.6% 1.0% 0.4%
-[Information] [23.02.2018 7:06:52] x264 [info]: ref B L1: 94.9% 5.1%
-[Information] [23.02.2018 7:06:52] x264 [info]: kb/s:3999.39
-[Information] [23.02.2018 7:06:52] encoded 144344 frames, 4.42 fps, 3999.39 kb/s
General
Unique ID : 201895868777372497729583556491419395358 (0x97E3BADCDD98AD6388B6B4377DD1251E)
Complete name : G:\Flamenco, Flamenco.BDRip720p.mkv
Format : Matroska
Format version : Version 2
File size : 3.86 GiB
Duration : 1 h 40 min
Overall bit rate : 5 511 kb/s
Movie name : Flamenco, [email protected] rutracker.org
Encoded date : UTC 2018-02-23 21:21:20
Writing application : mkvmerge v9.8.0 ('Kuglblids') 64bit
Writing library : libebml v1.3.4 + libmatroska v1.4.5
Video
ID : 1
Format : AVC
Format/Info : Advanced Video Codec
Format profile : [email protected]
Format settings : CABAC / 9 Ref Frames
Format settings, CABAC : Yes
Format settings, ReFrames : 9 frames
Codec ID : V_MPEG4/ISO/AVC
Duration : 1 h 40 min
Bit rate : 4 000 kb/s
Width : 1 280 pixels
Height : 688 pixels
Display aspect ratio : 1.85:1
Original display aspect rat : 1.85:1
Frame rate mode : Constant
Frame rate : 24.000 FPS
Color space : YUV
Chroma subsampling : 4:2:0
Bit depth : 8 bits
Scan type : Progressive
Bits/(Pixel*Frame) : 0.189
Stream size : 2.73 GiB (71%)
Title : anbelk27 @ rutracker.org
Writing library : x264 core 152 r2851 ba24899
Encoding settings : cabac=1 / ref=9 / deblock=1:-1:-2 / analyse=0x3:0x133 / me=umh / subme=11 / psy=1 / psy_rd=1.13:0.08 / mixed_ref=1 / me_range=32 / chroma_me=1 / trellis=2 / 8x8dct=1 / cqm=0 / deadzone=21,11 / fast_pskip=1 / chroma_qp_offset=-3 / threads=6 / lookahead_threads=1 / sliced_threads=0 / nr=0 / decimate=1 / interlaced=0 / bluray_compat=0 / constrained_intra=0 / bframes=10 / b_pyramid=2 / b_adapt=2 / b_bias=0 / direct=3 / weightb=1 / open_gop=0 / weightp=2 / keyint=240 / keyint_min=24 / scenecut=50 / intra_refresh=0 / rc_lookahead=80 / rc=2pass / mbtree=1 / bitrate=4000 / ratetol=1.0 / qcomp=0.60 / qpmin=0 / qpmax=69 / qpstep=4 / cplxblur=20.0 / qblur=0.5 / vbv_maxrate=50000 / vbv_bufsize=62500 / nal_hrd=none / filler=0 / ip_ratio=1.40 / aq=1:1.00
Default : Yes
Forced : No
Audio
ID : 2
Format : DTS
Format/Info : Digital Theater Systems
Codec ID : A_DTS
Duration : 1 h 40 min
Bit rate mode : Constant
Bit rate : 1 509 kb/s
Channel(s) : 6 channels
Channel positions : Front: L C R, Side: L R, LFE
Sampling rate : 48.0 kHz
Frame rate : 93.750 FPS (512 SPF)
Bit depth : 16 bits
Compression mode : Lossy
Stream size : 1.06 GiB (27%)
Title : DTS 5.1 @ 16 bit
Default : Yes
Forced : No
Menu
00:00:00.000 : en: Intro
00:02:51.000 : en: 1. Rumba
00:05:25.500 : en: 2. Alegría
00:10:58.417 : en: 3. Soleá Por Bulerías
00:14:46.000 : en: 4. Cartagenera Y Bulerías
00:19:49.583 : en: 5. Garrotín
00:24:27.625 : en: 6. Copla Por Bulería
00:27:52.625 : en: 7. Soleá
00:32:35.375 : en: 8. Saeta
00:34:32.375 : en: 9. Marcha Processional
00:37:36.833 : en: 10. Martinete Y Toná
00:40:41.375 : en: 11. Bulería
00:42:50.875 : en: 12. Silencio
00:48:18.625 : en: 13. Guajira
00:52:33.125 : en: 14. Alegría
00:57:12.458 : en: 15. Tangos
01:02:24.083 : en: 16. El Tiempo
01:06:57.875 : en: 17. La Leyenda Del Tiempo
01:10:54.958 : en: 18. Cancióm De Cuna
01:16:06.625 : en: 19. Zapateao
01:22:34.417 : en: 20. Bulería Por Soleá
01:29:51.542 : en: 21. Bulería De Jerez
Скриншоты
Download
Для скачивания .torrent файлов необходима регистрация
Сайт не распространяет и не хранит электронные версии произведений, а лишь предоставляет доступ к создаваемому пользователями каталогу ссылок на торрент-файлы, которые содержат только списки хеш-сумм
[Профиль]  [ЛС] 
 
Ответить
Loading...
Error