Приразломная. Без права на ошибку (Виталий Бузуев) [2016, познавательный, HDTV 1080i]

Страницы:  1

Ответить
Автор
Сообщение

karatak1

Стаж: 9 лет 3 месяца

Сообщений: 603


karatak1 · 07-Янв-18 15:52 (10 месяцев назад)

Приразломная. Без права на ошибку
Год выпуска: 2016
Страна: Россия
Студия: ТВ Новости
Жанр: познавательный
Продолжительность: 00:23:51
Перевод: Не требуется
Режиссер: Виталий Бузуев
Описание: Россия первой сумела поставить буровую платформу за Полярным кругом. И первой в истории получила арктическую нефть. Гонка за приоритетное право освоения природных богатств Севера набирает обороты – и выигрывают в ней только лучшие из лучших. Каждая отгрузка нефти – это очень ответственный процесс, многочасовой марафон, экзамен на профпригодность… О людях, работающих на буровой, о постоянных учебных тревогах, а также о том, что такое «зелёная линия» и почему на буровой нельзя носить кольца, рассказывает фильм «Приразломная. Без права на ошибку»
Тип релиза: HDTV 1080i
Контейнер: TS
Видео: AVC, PAL, 1920x1080, 16x9, 6737 Кbps, 25fps
Аудио: Русский, MP2, 2Ch, 48KHz, 192kbps
MediaInfo
Общее
Идентификатор : 1 (0x1)
Полное имя : H:\Приразломная. Без права на ошибку (TVnov2016).ts
Формат : MPEG-TS
Размер файла : 1,22 Гбайт
Продолжительность : 23 м. 51 с.
Режим общего битрейта : Переменный
Общий поток : 7291 Кбит/сек
Видео
Идентификатор : 1001 (0x3E9)
Идентификатор меню : 1 (0x1)
Формат : AVC
Формат/Информация : Advanced Video Codec
Профиль формата : [email protected]
Параметр CABAC формата : Да
Параметр ReFrames формата : 4 кадра
Идентификатор кодека : 27
Продолжительность : 23 м. 51 с.
Битрейт : 6737 Кбит/сек
Ширина : 1920 пикселей
Высота : 1080 пикселей
Соотношение сторон : 16:9
Частота кадров : 25,000 кадров/сек
Стандарт вещания : Component
Цветовое пространство : YUV
Субдискретизация насыщенности : 4:2:0
Битовая глубина : 8 бит
Тип развёртки : Чересстрочная
Метод сохранения типа развёртки : Раздельные поля
Порядок развёртки : Верхнее поле первое
Бит/(Пиксели*Кадры) : 0.130
Размер потока : 1,12 Гбайт (92%)
Цветовой диапазон : Limited
Основные цвета : BT.709
Характеристики трансфера : BT.709
Коэффициенты матрицы : BT.709
Аудио
Идентификатор : 1004 (0x3EC)
Идентификатор меню : 1 (0x1)
Формат : MPEG Audio
Версия формата : Version 1
Профиль формата : Layer 2
Идентификатор кодека : 3
Продолжительность : 23 м. 51 с.
Вид битрейта : Постоянный
Битрейт : 192 Кбит/сек
Каналы : 2 канала
Частота : 48,0 КГц
Метод сжатия : С потерями
Задержка видео : -120 мс.
Размер потока : 32,8 Мбайт (3%)
Язык : Russian
Скриншоты
Download
Для скачивания .torrent файлов необходима регистрация
Сайт не распространяет и не хранит электронные версии произведений, а лишь предоставляет доступ к создаваемому пользователями каталогу ссылок на торрент-файлы, которые содержат только списки хеш-сумм
[Профиль]  [ЛС] 

nttn

Стаж: 10 лет

Сообщений: 12


nttn · 24-Июл-18 18:37 (спустя 6 месяцев)

[Цитировать] 

Простите, а причем здесь "Путешествия и туризм"? Это скорее в "Естествознание".
[Профиль]  [ЛС] 
 
Ответить
Loading...
Error