Природный парк «Вепсский лес» (Мария Смелкова) [2013, познавательный, HDTV 1080i]

Страницы:  1

Ответить
Автор
Сообщение

karatak1

Стаж: 9 лет

Сообщений: 577


karatak1 · 24-Дек-17 16:01 (7 месяцев назад)

Природный парк «Вепсский лес»
Год выпуска: 2013
Страна: Россия
Студия: RTG TV
Жанр: познавательный
Продолжительность: 00:38:38
Перевод: Не требуется
Режиссер: Мария Смелкова
Описание: Природный парк "Вепсский Лес" - особо охраняемая природная территория Ленинградской Области. Это уникальный, созданный самой природой музей под открытым небом, который находится в краю сосен, рек, родников, водопадов и живописных лесов. Именно здесь всё выглядит так, словно рука человека не касалась заповедных мест, несмотря на то, что тут издревле проживали вепсы — самобытный народ, бережно хранящий свой язык и традиции.
Тип релиза: HDTV 1080i
Контейнер: TS
Видео: AVC, PAL, 1920x1080, 16x9, 7868 Кbps, 25fps
Аудио: Русский, MP2, 2Ch, 48KHz, 192kbps
MediaInfo
Общее
Идентификатор : 1 (0x1)
Полное имя : H:\Природный парк Вепсский лес(RTGHD2013) newa.ts
Формат : MPEG-TS
Размер файла : 2,29 Гбайт
Продолжительность : 38 м. 38 с.
Режим общего битрейта : Переменный
Общий поток : 8481 Кбит/сек
Видео
Идентификатор : 256 (0x100)
Идентификатор меню : 1 (0x1)
Формат : AVC
Формат/Информация : Advanced Video Codec
Профиль формата : [email protected]
Параметр CABAC формата : Да
Параметр ReFrames формата : 4 кадра
Идентификатор кодека : 27
Продолжительность : 38 м. 38 с.
Битрейт : 7868 Кбит/сек
Ширина : 1920 пикселей
Высота : 1080 пикселей
Соотношение сторон : 16:9
Частота кадров : 25,000 кадров/сек
Цветовое пространство : YUV
Субдискретизация насыщенности : 4:2:0
Битовая глубина : 8 бит
Тип развёртки : Чересстрочная
Метод сохранения типа развёртки : Раздельные поля
Порядок развёртки : Верхнее поле первое
Бит/(Пиксели*Кадры) : 0.152
Размер потока : 2,12 Гбайт (93%)
Цветовой диапазон : Limited
Основные цвета : BT.709
Характеристики трансфера : BT.709
Коэффициенты матрицы : BT.709
Аудио
Идентификатор : 302 (0x12E)
Идентификатор меню : 1 (0x1)
Формат : MPEG Audio
Версия формата : Version 1
Профиль формата : Layer 2
Идентификатор кодека : 3
Продолжительность : 38 м. 38 с.
Вид битрейта : Постоянный
Битрейт : 192 Кбит/сек
Каналы : 2 канала
Частота : 48,0 КГц
Метод сжатия : С потерями
Задержка видео : -80 мс.
Размер потока : 53,1 Мбайт (2%)
Язык : Russian
Скриншоты
Download
Для скачивания .torrent файлов необходима регистрация
Сайт не распространяет и не хранит электронные версии произведений, а лишь предоставляет доступ к создаваемому пользователями каталогу ссылок на торрент-файлы, которые содержат только списки хеш-сумм
[Профиль]  [ЛС] 

JeReming

Стаж: 7 лет 5 месяцев

Сообщений: 160

JeReming · 27-Дек-17 04:57 (спустя 2 дня 12 часов)

[Цитировать] 

Поучительное кино. Если бы финны вовремя не слиняли, с ними было бы то же что и с вепсами. Жутковатая картина: от целого этноса остались одни поделки, да и те фуфлыжные.
[Профиль]  [ЛС] 
 
Ответить
Loading...
Error