Природный парк «Оленьи Ручьи» (Сергей Ермоленко) [2013, познавательный, HDTV 1080i]

Страницы:  1

Ответить
Автор
Сообщение

karatak1

Стаж: 9 лет

Сообщений: 577


karatak1 · 24-Дек-17 15:30 (7 месяцев назад)

Природный парк «Оленьи Ручьи»
Год выпуска: 2013
Страна: Россия
Студия: RTG TV
Жанр: познавательный
Продолжительность: 00:26:07
Перевод: Не требуется
Режиссер: Сергей Ермоленко
Описание: «Оленьи Ручьи» — самый популярный в Свердловской области природный парк. В год его посещают более 50 тысяч человек. Туристов привлекают сюда прекрасные леса, чистая река Серга, многочисленные живописные скалы, гроты и пещеры. Также река Серга отлично подходит для сплава на два-три дня.
Тип релиза: HDTV 1080i
Контейнер: TS
Видео: AVC, PAL, 1920x1080, 16x9, 8626 Кbps, 25fps
Аудио: Русский, MP2, 2Ch, 48KHz, 192kbps
MediaInfo
Общее
Идентификатор : 1 (0x1)
Полное имя : H:\Природный парк Оленьи ручьи(RTGHD2013).ts
Формат : MPEG-TS
Размер файла : 1,69 Гбайт
Продолжительность : 26 м. 7 с.
Режим общего битрейта : Переменный
Общий поток : 9278 Кбит/сек
Видео
Идентификатор : 202 (0xCA)
Идентификатор меню : 20102 (0x4E86)
Формат : AVC
Формат/Информация : Advanced Video Codec
Профиль формата : [email protected]
Параметр CABAC формата : Да
Параметр ReFrames формата : 4 кадра
Идентификатор кодека : 27
Продолжительность : 26 м. 7 с.
Битрейт : 8626 Кбит/сек
Ширина : 1920 пикселей
Высота : 1080 пикселей
Соотношение сторон : 16:9
Частота кадров : 25,000 кадров/сек
Стандарт вещания : Component
Цветовое пространство : YUV
Субдискретизация насыщенности : 4:2:0
Битовая глубина : 8 бит
Тип развёртки : Чересстрочная
Метод сохранения типа развёртки : Раздельные поля
Порядок развёртки : Верхнее поле первое
Бит/(Пиксели*Кадры) : 0.166
Размер потока : 1,57 Гбайт (93%)
Цветовой диапазон : Limited
Основные цвета : BT.709
Характеристики трансфера : BT.709
Коэффициенты матрицы : BT.709
Аудио
Идентификатор : 302 (0x12E)
Идентификатор меню : 20102 (0x4E86)
Формат : MPEG Audio
Версия формата : Version 1
Профиль формата : Layer 2
Идентификатор кодека : 3
Продолжительность : 26 м. 7 с.
Вид битрейта : Постоянный
Битрейт : 192 Кбит/сек
Каналы : 2 канала
Частота : 48,0 КГц
Метод сжатия : С потерями
Размер потока : 35,9 Мбайт (2%)
Язык : Russian
Скриншоты
Download
Для скачивания .torrent файлов необходима регистрация
Сайт не распространяет и не хранит электронные версии произведений, а лишь предоставляет доступ к создаваемому пользователями каталогу ссылок на торрент-файлы, которые содержат только списки хеш-сумм
[Профиль]  [ЛС] 
 
Ответить
Loading...
Error