Дороги России - Трасса Колыма. [2016, Документальный/познавательный., WEBRip]

Страницы:  1

Ответить
Автор
Сообщение

kosty loganok

Top Seed 06* 1280r

Стаж: 8 лет 7 месяцев

Сообщений: 4026

kosty loganok · 02-Ноя-17 20:48 (9 месяцев назад, ред. 17-Янв-18 17:39)

Дороги России - Трасса Колыма. Дата/Год выпуска: 2016
Страна: Россия
Жанр: Документальный/познавательный.
Продолжительность: 00:44:00.
Перевод: Не требуется
Телеканал: Discovery Channel Russia
Описание: Автор и ведущий Андрей Леонтьев продолжает новый цикл передач Дороги России и рассказывает о Трассе Колыма ..
Начало серии тут - http://rutracker.org/forum/viewtopic.php?t=5451217
Продолжение тут http://rutracker.org/forum/viewtopic.php?t=5508191
качество: WEBRip
формат: AVI
Видео: 656x368 (1.78:1), 25 fps, XviD build 63 ~1796 kbps avg, 0.30 bit/pixel
Аудио: 44.100 kHz, MPEG Layer 3, 2 ch, ~128.00 kbps avg
MediaInfo
Полное имя                         Дороги России\06.Дороги России - Трасса Колыма 2016.avi
Формат : AVI
Формат/Информация : Audio Video Interleave
Размер файла : 610 Мбайт
Продолжительность : 44 м.
Общий поток : 1937 Кбит/сек
Программа кодирования : Lavf51.12.1
Видео
Идентификатор : 0
Формат : xvid
Идентификатор кодека : xvid
Продолжительность : 44 м.
Битрейт : 1797 Кбит/сек
Ширина : 656 пикселей
Высота : 368 пикселей
Соотношение сторон : 16:9
Частота кадров : 25,000 кадров/сек
Бит/(Пиксели*Кадры) : 0.298
Размер потока : 565 Мбайт (93%)
Аудио
Идентификатор : 1
Формат : MPEG Audio
Версия формата : Version 1
Профиль формата : Layer 3
Режим : Joint stereo
Расширение режима : MS Stereo
Идентификатор кодека : 55
Идентификатор кодека/Подсказка : MP3
Продолжительность : 44 м.
Вид битрейта : Постоянный
Битрейт : 128 Кбит/сек
Каналы : 2 канала
Частота : 44,1 КГц
Метод сжатия : С потерями
Размер потока : 40,3 Мбайт (7%)
Выравнивание : Соединение по промежуткам
Продолжительность промежутка : 26 мс. (0,65 видеокадр)
Библиотека кодирования : LAME3.97
Скриншоты
Download
Для скачивания .torrent файлов необходима регистрация
Сайт не распространяет и не хранит электронные версии произведений, а лишь предоставляет доступ к создаваемому пользователями каталогу ссылок на торрент-файлы, которые содержат только списки хеш-сумм
[Профиль]  [ЛС] 
 
Ответить
Loading...
Error