Дороги России. Трасса Кола. (Заполярье) [2016, Документальный, познавательный, WEBRip]

Страницы:  1

Ответить
Автор
Сообщение

kosty loganok

Top Seed 06* 1280r

Стаж: 8 лет 10 месяцев

Сообщений: 4045

kosty loganok · 10-Сен-17 12:53 (1 год 3 месяца назад, ред. 10-Окт-17 19:38)

Дороги России- Трасса Кола.(Заполярье) Дата/Год выпуска: 2016
Страна: Россия
Жанр: Документальный/познавательный.
Продолжительность: 00:44:00.
Перевод: Не требуется
Телеканал: Discovery Channel Russia
Описание: Автор и ведущий Андрей Леонтьев в новом цикле передач Дороги России рассказывает о Трассе Кола..
Протяженность полярного круга в России шесть тысяч километров, но проникнуть вглубь Арктики на легковой машине можно только в Карелии и Мурманской области. Федеральная трасса "Кола" берет начало в Санкт-Петербурге, проходит через Петрозаводск, Мурманск, Печенгу и упирается в норвежскую границу. Именно в Заполярье находится самый сложный участок автодороги.
Мы поедем по этой трассе на Север и познакомим вас с удивительными людьми и красотами края. Федеральная трасса Кола проходит через карельские сопки, архангельскую тундру и склоны Хибин. Увлекательное путешествие длиной в 1500 км по одной из самых необычных автодорог России!
Трасса "Кола" берет начало в Санкт-Петербурге, проходит через Петрозаводск, Мурманск, Печенгу и упирается в норвежскую границу. Именно в Заполярье находится самый сложный участок автодороги. Двухполосная трасса стала слишком мала, и в 2013 году на подъезде к Мурманску началась ее масштабная реконструкция.

Продолжение передач тут - http://rutracker.org/forum/viewtopic.php?t=5453623
Доп. информация: по видео
скрытый текст
File: 01.Дороги России-Трасса Кола.2016 .avi
Filesize: 610.91 Mb ( 640 582 200 bytes )
Play length: 00:44:00.040 (66001 frames)
Subtitles: Not Present
Video: 720x400 (1.80:1), 25 fps, XviD build 63 ~1800 kbps avg, 0.25 bit/pixel
Audio: 44.100 kHz, MPEG Layer 3, 2 ch, ~128.00 kbps avg
качество: WEBRip
формат: AVI
Видео: 720x400 (1.80:1), 25 fps, XviD build 63 ~1800 kbps avg, 0.25 bit/pixel
Аудио: 44.100 kHz, MPEG Layer 3, 2 ch, ~128.00 kbps avg
MediaInfo
олное имя                         Дороги России\01.Дороги России- Трасса Кола 2016 .avi
Формат : AVI
Формат/Информация : Audio Video Interleave
Размер файла : 611 Мбайт
Продолжительность : 44 м.
Общий поток : 1941 Кбит/сек
Программа кодирования : Lavf51.12.1
Видео
Идентификатор : 0
Формат : xvid
Идентификатор кодека : xvid
Продолжительность : 44 м.
Битрейт : 1801 Кбит/сек
Ширина : 720 пикселей
Высота : 400 пикселей
Соотношение сторон : 16:9
Частота кадров : 25,000 кадров/сек
Бит/(Пиксели*Кадры) : 0.250
Размер потока : 567 Мбайт (93%)
Аудио
Идентификатор : 1
Формат : MPEG Audio
Версия формата : Version 1
Профиль формата : Layer 3
Режим : Joint stereo
Расширение режима : MS Stereo
Идентификатор кодека : 55
Идентификатор кодека/Подсказка : MP3
Продолжительность : 44 м.
Вид битрейта : Постоянный
Битрейт : 128 Кбит/сек
Каналы : 2 канала
Частота : 44,1 КГц
Метод сжатия : С потерями
Размер потока : 40,3 Мбайт (7%)
Выравнивание : Соединение по промежуткам
Продолжительность промежутка : 26 мс. (0,65 видеокадр)
Библиотека кодирования : LAME3.97
Скриншоты
Download
Для скачивания .torrent файлов необходима регистрация
Сайт не распространяет и не хранит электронные версии произведений, а лишь предоставляет доступ к создаваемому пользователями каталогу ссылок на торрент-файлы, которые содержат только списки хеш-сумм
[Профиль]  [ЛС] 
 
Ответить
Loading...
Error