Путешествие по Валдайскому краю (Елена Нупрейчик) [2014, документальный, HDTV 1080i]

Страницы:  1

Ответить
Автор
Сообщение

karatak1

Стаж: 9 лет 2 месяца

Сообщений: 593


karatak1 · 05-Май-17 17:27 (1 год 5 месяцев назад, ред. 27-Май-18 17:51)

Путешествие по Валдайскому краю
Год выпуска: 2014
Страна: Россия
Студия: RTG TV
Жанр: документальный
Продолжительность: 00:28:06
Перевод: Не требуется
Режиссер: Елена Нупрейчик
Описание: Сказочно красив Валдайский край. Стройные леса здесь обступают берега многочисленных озер и рек. Каждый сезон приносит на эту землю свои краски. Яркие и солнечные - летом, пастельные, туманные - осенью. Ежегодно свыше 60-ти тысяч человек приезжают отдохнуть в этот уголок нетронутой природы. Валдайская земля не прячет свою красоту, она готова делится ею, радовать и вдохновлять всех, кто когда-либо побывает в этих заповедных местах.
Тип релиза: HDTV 1080i
Контейнер: TS
Видео: AVC, PAL, 1920x1080, 16x9, 7091 Кbps, 25fps
Аудио: Русский, MP2, 2Ch, 48KHz, 192kbps
MediaInfo
Общее
Идентификатор : 1 (0x1)
Полное имя : H:\Путешествие по Валдайскому краю (new2018).ts
Формат : MPEG-TS
Размер файла : 1,50 Гбайт
Продолжительность : 28 м. 6 с.
Режим общего битрейта : Переменный
Общий поток : 7663 Кбит/сек
Видео
Идентификатор : 202 (0xCA)
Идентификатор меню : 20102 (0x4E86)
Формат : AVC
Формат/Информация : Advanced Video Codec
Профиль формата : [email protected]
Настройки формата : CABAC / 4 Ref Frames
Параметр CABAC формата : Да
Параметр RefFrames формата : 4 кадра
Идентификатор кодека : 27
Продолжительность : 28 м. 6 с.
Битрейт : 7091 Кбит/сек
Ширина : 1920 пикселей
Высота : 1080 пикселей
Соотношение сторон : 16:9
Частота кадров : 25,000 кадров/сек
Стандарт вещания : Component
Цветовое пространство : YUV
Субдискретизация насыщенности : 4:2:0
Битовая глубина : 8 бит
Тип развёртки : Чересстрочная
Метод сохранения типа развёртки : Раздельные поля
Порядок развёртки : Верхнее поле первое
Бит/(Пиксели*Кадры) : 0.137
Размер потока : 1,39 Гбайт (93%)
Цветовой диапазон : Limited
Основные цвета : BT.709
Характеристики трансфера : BT.709
Коэффициенты матрицы : BT.709
Аудио
Идентификатор : 257 (0x101)
Идентификатор меню : 20102 (0x4E86)
Формат : MPEG Audio
Версия формата : Version 1
Профиль формата : Layer 2
Идентификатор кодека : 3
Продолжительность : 28 м. 6 с.
Вид битрейта : Постоянный
Битрейт : 192 Кбит/сек
Каналы : 2 канала
Частота : 48,0 КГц
Частота кадров : 41,667 кадра/сек (1152 SPF)
Метод сжатия : С потерями
Задержка видео : -40 мс.
Размер потока : 38,6 Мбайт (3%)
Язык : Russian
Скриншоты
Download
Для скачивания .torrent файлов необходима регистрация
Сайт не распространяет и не хранит электронные версии произведений, а лишь предоставляет доступ к создаваемому пользователями каталогу ссылок на торрент-файлы, которые содержат только списки хеш-сумм
[Профиль]  [ЛС] 

AlexSchl

VIP (Заслуженный)

Стаж: 9 лет 9 месяцев

Сообщений: 2978

AlexSchl · 06-Май-17 23:33 (спустя 1 день 6 часов)

[Цитировать] 

karatak1
Цитата:
(в MI отсутствуют строки Encoding settings, Writing library)
# Сомнительно

[Профиль]  [ЛС] 

harvester_030

Стаж: 10 лет

Сообщений: 190

harvester_030 · 07-Май-17 23:23 (спустя 23 часа)

[Цитировать] 

Было 6 сидов стало 8 - закачка не идет
[Профиль]  [ЛС] 
 
Ответить
Loading...
Error