Джодха и Акбар: История великой любви / Jodha Akbar / Серии: 1-206/576 (Santram Varma) [2013-2014, Индия, Драма, WEB-Rip 1080p]

Страницы:  1

Ответить
Автор
Сообщение

orYou

Стаж: 10 лет 8 месяцев

Сообщений: 29

orYou · 25-Фев-17 20:46 (1 год 7 месяцев назад, ред. 27-Мар-17 11:12)

Джодха и Акбар: История великой любви / Jodha Akbar
Год выпуска: 2013-2014
Страна: Индия
Жанр: Драма
Серии (количество): 1-206 из 576
Продолжительность серии/всего: ~21:01/72:11:38
Перевод: профессиональный многоголосый закадровый
Субтитры: отсутствуют
Режиссёр: Santram Varma
В ролях: Навед Аслам, Кунал Бхатия, Четан Хансрадж, Ашвини Кхалсекар, Лавина Тандон, Паридхи Шарма, Анкит Райзада, Раджат Токас, Параг Тьяги, Маниша Ядав.
Описание: Историческая и политическая мелодрама большой любви из шестнадцатого века между прекрасной принцессой Джодха являющейся индуской и управляющим династии моголов по прозвищу Великий. Акбар в городке Фатехпур-Сикри. Союз который был создан для примирения мусульман и индусов а в результате проявление неземной любви правителя и его наложницы принцессы дочери раджи Бхармал Амер.
Сэмпл: http://multi-up.com/1142518
Ссылка на предыдущие и альтернативные раздачи: Все раздачи сериала
Качество: WEB-DLRip 1080p
Формат: MP4
Видео кодек: AVC
Аудио кодек: AAC
Видео: AVC, 1920x1080, 25fps, 5120kbps
Аудио: AAC, 48Hz, 2ch, 192kbps
MI
Общее
Полное имя : D:\Downloads\001 серия.mp4
Формат : MPEG-4
Профиль формата : Base Media
Идентификатор кодека : isom (isom/iso2/avc1/mp41)
Размер файла : 1,01 Гбайт
Продолжительность : 27 м. 18 с.
Общий поток : 5310 Кбит/сек
Программа кодирования : Lavf55.33.100
Видео
Идентификатор : 1
Формат : AVC
Формат/Информация : Advanced Video Codec
Профиль формата : [email protected]
Параметр CABAC формата : Да
Параметр ReFrames формата : 4 кадра
Идентификатор кодека : avc1
Идентификатор кодека/Информация : Advanced Video Coding
Продолжительность : 27 м. 17 с.
Битрейт : 5120 Кбит/сек
Ширина : 1920 пикселей
Высота : 1080 пикселей
Соотношение сторон : 16:9
Режим частоты кадров : Постоянный
Частота кадров : 25,000 кадров/сек
Цветовое пространство : YUV
Субдискретизация насыщенности : 4:2:0
Битовая глубина : 8 бит
Тип развёртки : Прогрессивная
Бит/(Пиксели*Кадры) : 0.099
Размер потока : 998 Мбайт (96%)
Библиотека кодирования : x264 core 142
Настройки программы : cabac=1 / ref=3 / deblock=1:0:0 / analyse=0x3:0x113 / me=hex / subme=7 / psy=1 / psy_rd=1.00:0.00 / mixed_ref=1 / me_range=16 / chroma_me=1 / trellis=1 / 8x8dct=1 / cqm=0 / deadzone=21,11 / fast_pskip=1 / chroma_qp_offset=-2 / threads=8 / lookahead_threads=1 / sliced_threads=0 / nr=0 / decimate=1 / interlaced=0 / bluray_compat=0 / constrained_intra=0 / bframes=6 / b_pyramid=2 / b_adapt=1 / b_bias=0 / direct=1 / weightb=1 / open_gop=0 / weightp=2 / keyint=200 / keyint_min=20 / scenecut=0 / intra_refresh=0 / rc_lookahead=40 / rc=2pass / mbtree=1 / bitrate=5120 / ratetol=1.0 / qcomp=0.60 / qpmin=0 / qpmax=69 / qpstep=4 / cplxblur=20.0 / qblur=0.5 / vbv_maxrate=7680 / vbv_bufsize=20480 / nal_hrd=none / filler=0 / ip_ratio=1.40 / aq=1:1.00
Язык : English
Дата пометки : UTC 2015-07-02 11:55:56
Аудио
Идентификатор : 2
Формат : AAC
Формат/Информация : Advanced Audio Codec
Профиль формата : LC
Идентификатор кодека : 40
Продолжительность : 27 м. 18 с.
Duration_LastFrame : 43 мс.
Вид битрейта : Постоянный
Битрейт : 192 Кбит/сек
Каналы : 2 канала
Расположение каналов : Front: L R
Частота : 48,0 КГц
Частота кадров : 46,875 кадров/сек (1024 spf)
Метод сжатия : С потерями
Размер потока : 37,7 Мбайт (4%)
Язык : English
Default : Да
Alternate group : 1
Дата пометки : UTC 2015-07-02 11:55:56
Скриншоты
14.03.2017 Перезалиты серии 8 и 9, были битые первые кадры.
Download
Для скачивания .torrent файлов необходима регистрация
Сайт не распространяет и не хранит электронные версии произведений, а лишь предоставляет доступ к создаваемому пользователями каталогу ссылок на торрент-файлы, которые содержат только списки хеш-сумм
[Профиль]  [ЛС] 

1402inna

Стаж: 7 лет 6 месяцев

Сообщений: 683

1402inna · 20-Мар-17 10:06 (спустя 22 дня)

[Цитировать] 

История классическая, интересная, но как представлю их пляски и песни бОльшую часть сериала....
[Профиль]  [ЛС] 

orYou

Стаж: 10 лет 8 месяцев

Сообщений: 29

orYou · 22-Мар-17 18:50 (спустя 2 дня 8 часов, ред. 21-Фев-18 09:45)

[Цитировать] 

1402inna
Ниодной песнепляски в этом сериале нет.
[Профиль]  [ЛС] 
 
Ответить
Loading...
Error