Роковые машины с Брайаном Джонсоном / Cars that Rock with Brian Johnson / Сезон: 1 / Серии: 1 из 6 [2014, Великобритания, документальный, автошоу, HDTVRip] MVO + Original + Subs

Страницы:  1

Ответить
Автор
Сообщение

DimaDimCh

Стаж: 4 года 11 месяцев

Сообщений: 93

DimaDimCh · 23-Фев-17 22:08 (1 год 6 месяцев назад, ред. 25-Фев-17 15:47)

Роковые машины с Брайаном Джонсоном / Cars that Rock with Brian Johnson
Страна: Великобритания
Режиссер: Майкл Нуваллета
Жанр: документальный, автошоу
Дата выпуска: 2014
Продолжительность: 45 минут
Перевод: многоголосый закадровый, Quantum Studio+Jetvis Studio
Описание: Когда он не выступает перед толпой орущих фанатов, солиста AC/DC Брайана Джонсона можно увидеть за рулём какого-нибудь крутого автомобиля. И теперь Брайан намерен поделиться своим увлечением с публикой. Он будет изучать, обсуждать и, конечно же, водить самые легендарные автомобили, и покажет, почему каждый из них по праву является шедевром инженерного искусства. Брайан расскажет об их истории, а также об их знаменитых владельцах
Доп. информация: По мере перевода и озвучивания последующих серий раздача будет дополнена
Сэмпл
Качество видео: HDTVRip
Формат видео: MKV
Видео: AVC, 720x400, 16:9, 23,976 fps, 1860 kbps
Аудио 1: AC-3, 48 kHz, 2 ch, 256 kbps, русский
Аудио 2: AC-3, 48 kHz, 6 ch, 256 kbps, английский
Субтитры: русские, английские
Роли озвучивали: Дмитрий Сухоруков, Иван Назаров, Екатерина Дмитрова
Перевод текста: Дмитрий Чекурин
Список серий
1x01 Mini / Мини
Скриншоты
MediaInfo
Общее
Уникальный идентификатор : 218788447980305172813519409309429172097 (0xA4991F5202A3103F90A47432B2A28781)
Полное имя : H:\Раб стол\Cars that rock\1\Cars.That.Rock.With.Brian.Johnson.S01E01.Mini.HDTV.AC3.MP4.mkv
Формат : Matroska
Версия формата : Version 4 / Version 2
Размер файла : 775 Мбайт
Продолжительность : 45 м.
Общий поток : 2374 Кбит/сек
Дата кодирования : UTC 2017-02-23 18:08:12
Программа кодирования : mkvmerge v9.4.0 ('Knurl') 32bit
Библиотека кодирования : libebml v1.3.4 + libmatroska v1.4.5
DURATION : 00:45:22.980000000
NUMBER_OF_FRAMES : 1019
NUMBER_OF_BYTES : 37952
_STATISTICS_WRITING_APP : mkvmerge v9.4.0 ('Knurl') 32bit
_STATISTICS_WRITING_DATE_UTC : 2017-02-23 18:08:12
_STATISTICS_TAGS : BPS DURATION NUMBER_OF_FRAMES NUMBER_OF_BYTES
Видео
Идентификатор : 1
Формат : AVC
Формат/Информация : Advanced Video Codec
Профиль формата : [email protected]
Параметр CABAC формата : Да
Параметр ReFrames формата : 7 кадров
Идентификатор кодека : V_MPEG4/ISO/AVC
Продолжительность : 45 м.
Битрейт : 1860 Кбит/сек
Ширина : 720 пикселей
Высота : 400 пикселей
Соотношение сторон : 16:9
Режим частоты кадров : Постоянный
Частота кадров : 23,976 кадра/сек
Цветовое пространство : YUV
Субдискретизация насыщенности : 4:2:0
Битовая глубина : 8 бит
Тип развёртки : Прогрессивная
Бит/(Пиксели*Кадры) : 0.269
Размер потока : 593 Мбайт (76%)
Библиотека кодирования : x264 core 148 r2638 7599210
Настройки программы : cabac=1 / ref=7 / deblock=1:0:0 / analyse=0x1:0x111 / me=umh / subme=9 / psy=1 / psy_rd=1.00:0.00 / mixed_ref=1 / me_range=24 / chroma_me=1 / trellis=1 / 8x8dct=0 / cqm=0 / deadzone=21,11 / fast_pskip=1 / chroma_qp_offset=-2 / threads=3 / lookahead_threads=1 / sliced_threads=0 / nr=0 / decimate=1 / interlaced=0 / bluray_compat=0 / constrained_intra=0 / bframes=7 / b_pyramid=2 / b_adapt=1 / b_bias=0 / direct=1 / weightb=0 / open_gop=0 / weightp=2 / keyint=240 / keyint_min=23 / scenecut=40 / intra_refresh=0 / rc_lookahead=40 / rc=2pass / mbtree=1 / bitrate=1860 / ratetol=1.0 / qcomp=0.60 / qpmin=0 / qpmax=69 / qpstep=7 / cplxblur=20.0 / qblur=0.5 / ip_ratio=1.40 / aq=1:1.00
Default : Да
Forced : Нет
Аудио #1
Идентификатор : 2
Формат : AC-3
Формат/Информация : Audio Coding 3
Расширение режима : CM (complete main)
Параметр Endianness формата : Big
Идентификатор кодека : A_AC3
Продолжительность : 45 м.
Вид битрейта : Постоянный
Битрейт : 256 Кбит/сек
Каналы : 2 канала
Расположение каналов : Front: L R
Частота : 48,0 КГц
Битовая глубина : 16 бит
Метод сжатия : С потерями
Размер потока : 83,6 Мбайт (11%)
Заголовок : Quantum Studio
Язык : Russian
Default : Да
Forced : Нет
Аудио #2
Идентификатор : 3
Формат : AC-3
Формат/Информация : Audio Coding 3
Расширение режима : CM (complete main)
Параметр Endianness формата : Big
Идентификатор кодека : A_AC3
Продолжительность : 45 м.
Вид битрейта : Постоянный
Битрейт : 256 Кбит/сек
Каналы : 6 каналов
Расположение каналов : Front: L C R, Side: L R, LFE
Частота : 48,0 КГц
Битовая глубина : 16 бит
Метод сжатия : С потерями
Размер потока : 83,6 Мбайт (11%)
Заголовок : Original
Язык : English
Default : Нет
Forced : Нет
Текст #1
Идентификатор : 4
Формат : UTF-8
Идентификатор кодека : S_TEXT/UTF8
Идентификатор кодека/Информация : UTF-8 Plain Text
Заголовок : DimDimCh
Язык : Russian
Default : Да
Forced : Нет
Текст #2
Идентификатор : 5
Формат : UTF-8
Идентификатор кодека : S_TEXT/UTF8
Идентификатор кодека/Информация : UTF-8 Plain Text
Заголовок : Original
Язык : English
Default : Нет
Forced : Нет
Download
Для скачивания .torrent файлов необходима регистрация
Сайт не распространяет и не хранит электронные версии произведений, а лишь предоставляет доступ к создаваемому пользователями каталогу ссылок на торрент-файлы, которые содержат только списки хеш-сумм
[Профиль]  [ЛС] 
 
Ответить
Loading...
Error