Маленький Принц и восьмиглавый Дракон / Wanpaku oji no orochi taiji [Movie] [Без хардсаба] [JAP, ENG, SUB] [1963, фэнтези, приключения, DVDRip] [HWP]

Страницы:  1

Ответить
Автор
Сообщение

smit009

Top Seed 04* 320r

Стаж: 10 лет 11 месяцев

Сообщений: 2335

smit009 · 27-Июл-16 16:31 (2 года 2 месяца назад, ред. 28-Июл-16 22:51)

Маленький Принц и восьмиглавый Дракон / Wanpaku ôji no orochi taiji / わんぱく王子の大蛇退治 Страна: Япония
Год выпуска: 1963 г.
Жанр: аниме, фэнтези, приключения
Тип: Movie
Продолжительность: 01:25:48
Режиссер: Юго Сэрикава
Студия: Toei Animation
Описание: Экранизация древней японской легенды о солнечном принце Сусано. Действие разворачиваются в сказочном мире, где живет несносный и своенравный принц Сусано со своими родителями, матерью Идзанаги и отцом Идзанами. Но к несчастью юного героя, его мать умирает. Отец не решается сказать сыну напрямую правду, отмахнувшись лишь отговоркой, что его мать отправилась в прекрасную страну И Сусано решает сам добраться до того места, куда «ушла» его мать. В этом ему помогает храбрый Зайчик, Титан-бо и другие божественные родственники...
Доп. информация: Маленький Принц и восьмиглавый Дракон был признан одной из лучших анимационных работ в мире, заняв 10-е место в рейтинге 150 лучших мультфильмов и мультсериалов всех времен и народов..
Это была первая полноценная режиссерская работа Юго Сэрикава
Награды:
Mainichi Film Concours (1964)
Won (1):
* Ofuji Noburo Award To all the staff who worked on the film.
===============================================
Venice Film Festival (1963)
Won (1):
* Bronze Osella

.
Качество: DVDRip
Тип релиза: Без хардсаба
Формат видео: AVI
Совместимость с бытовыми плеерами: Да
Видео: XviD, 720x288 (16:9), 23.976 fps, 1400 kbps, 8 bits
Аудио: Japan AC3 Dolby Digital, 48 kHz, 2/0 (L,R) ch, 224.00 kbps
Аудио 2: English AC3 Dolby Digital, 48 kHz, 2/0 (L,R) ch, 224.00 kbps
Субтитры: русские Тье Эль Мин
Формат субтитров: softsub (SRT)
Подробные тех. данные
General
Complete name : H:\Wanpaku Ouji no Orochi Tai (1963)\Wanpaku Ouji no Orochi Tai.1963.DVDRip.avi
Format : AVI
Format/Info : Audio Video Interleave
File size : 1.10 GiB
Duration : 1h 25mn
Overall bit rate : 1 827 Kbps
Writing application : VirtualDubModRus 1.5.10.2 (build 2542/release)
Writing library : VirtualDubMod build 2542/release
Video
ID : 0
Format : MPEG-4 Visual
Format profile : Advanced [email protected]
Format settings, BVOP : 1
Format settings, QPel : No
Format settings, GMC : No warppoints
Format settings, Matrix : Custom
Codec ID : XVID
Codec ID/Hint : XviD
Duration : 1h 25mn
Bit rate : 1 397 Kbps
Width : 720 pixels
Height : 288 pixels
Display aspect ratio : 2.500
Frame rate : 23.976 fps
Color space : YUV
Chroma subsampling : 4:2:0
Bit depth : 8 bits
Scan type : Progressive
Compression mode : Lossy
Bits/(Pixel*Frame) : 0.281
Stream size : 857 MiB (76%)
Writing library : XviD 73
Audio #1
ID : 1
Format : AC-3
Format/Info : Audio Coding 3
Mode extension : CM (complete main)
Format settings, Endianness : Big
Codec ID : 2000
Duration : 1h 25mn
Bit rate mode : Constant
Bit rate : 224 Kbps
Channel(s) : 2 channels
Channel positions : Front: L R
Sampling rate : 48.0 KHz
Compression mode : Lossy
Stream size : 137 MiB (12%)
Alignment : Split accross interleaves
Interleave, duration : 42 ms (1.00 video frame)
Interleave, preload duration : 500 ms
Audio #2
ID : 2
Format : AC-3
Format/Info : Audio Coding 3
Mode extension : CM (complete main)
Format settings, Endianness : Big
Codec ID : 2000
Duration : 1h 25mn
Bit rate mode : Constant
Bit rate : 192 Kbps
Channel(s) : 2 channels
Channel positions : Front: L R
Sampling rate : 48.0 KHz
Compression mode : Lossy
Stream size : 118 MiB (11%)
Alignment : Split accross interleaves
Interleave, duration : 42 ms (1.00 video frame)
Interleave, preload duration : 500 ms
Скриншоты
Download
Для скачивания .torrent файлов необходима регистрация
Сайт не распространяет и не хранит электронные версии произведений, а лишь предоставляет доступ к создаваемому пользователями каталогу ссылок на торрент-файлы, которые содержат только списки хеш-сумм
[Профиль]  [ЛС] 
 
Ответить
Loading...
Error