Будда / Buddha / Серии: 55 (Gajra Kottary, Prakash Kapadia) [2013, Индия, Исторический индийский эпос, HDRip 1280*720]

Страницы:  1

Ответить
Автор
Сообщение

WebRamm

Стаж: 8 лет 10 месяцев

Сообщений: 17


WebRamm · 22-Июл-16 16:53 (2 года 2 месяца назад, ред. 24-Июл-16 11:50)

Будда / Buddha
Год выпуска: 2013
Страна: Индия
Производство: Индия
Жанр: Исторический эпос, Духовное, Легенда
Серии (количество): 55
Продолжительность: 45:00
Перевод: профессиональный многоголосый закадровый ZeeTV
Субтитры: отсутствуют
Режиссёр: Gajra Kottary, Prakash Kapadia
В ролях: Химаншу Сони, Каджал Джайн, Кабир Беди, Самир Дхармадхикари, Амит Бехл, Хемант Чаудхари
Himanshu Soni
Kajal Jain
Sanket Choukse
Kabir Bedi
Sameer Dharmadhikari
Jagat Singh (Actor)
Reshmi Ghosh
Siddharth Vasudev
Amit Behl
Hemant Choudhary
Описание: Картина описывает становление личности человека от рождения до перевоплощения в святого. Каждый, кто хоть раз слышал о Будде, имеет свое представление о нем, а новый взгляд всегда добавляет свой ракурс в это видение. Зрители на протяжении сериала пройдут нелегкий путь вместе с Буддой, которого ждет «предельная истина»: начиная с самого раннего детства, когда он считал, что в мире есть только радость и роскошь; в юности, когда он увидел голод и смерть; в зрелости, когда он через добровольные аскетические ограничения снова познал радость и понял, что верить в себя можно не только в рамках какой-то религии.
Доп. информация: В раздаче также присутствует бонусное видео посвящённое встрече создателей сериала Будда с Далай Ламой
Ссылка на предыдущие и альтернативные раздачи:
http://rutracker.org/forum/viewtopic.php?t=5257847
http://rutracker.org/forum/viewtopic.php?t=5257885
Качество: HDRip
Формат: mp4
Видео кодек: H.264
Аудио кодек: AAC
Видео: AVC, серии 01-42 1280*720 (16:9), 25000 fps, 2569 kbps
Аудио: AAC, 48,0 КГц, 2 канала, 140 Кбит/сек
MI
Общее
Полное имя : \HD Будда Buddha
Формат : MPEG-4
Профиль формата : Base Media
Идентификатор кодека : isom (isom/iso2/avc1/mp41)
Размер файла : 812 Мбайт
Продолжительность : 41 м.
Общий поток : 2710 Кбит/сек
Программа кодирования : Lavf55.33.100
Видео
Идентификатор : 1
Формат : AVC
Формат/Информация : Advanced Video Codec
Профиль формата : [email protected]
Параметр CABAC формата : Да
Параметр ReFrames формата : 4 кадра
Идентификатор кодека : avc1
Идентификатор кодека/Информация : Advanced Video Coding
Продолжительность : 41 м.
Битрейт : 2569 Кбит/сек
Ширина : 1280 пикселей
Высота : 720 пикселей
Соотношение сторон : 16:9
Режим частоты кадров : Постоянный
Частота кадров : 25,000 кадров/сек
Цветовое пространство : YUV
Субдискретизация насыщенности : 4:2:0
Битовая глубина : 8 бит
Тип развёртки : Прогрессивная
Бит/(Пиксели*Кадры) : 0.112
Размер потока : 769 Мбайт (95%)
Библиотека кодирования : x264 core 142
Дата пометки : UTC 2016-02-01 21:33:47
Аудио
Идентификатор : 2
Формат : AAC
Формат/Информация : Advanced Audio Codec
Профиль формата : LC
Идентификатор кодека : 40
Продолжительность : 41 м.
Duration_LastFrame : 43 мс.
Вид битрейта : Постоянный
Битрейт : 140 Кбит/сек
Каналы : 2 канала
Расположение каналов : Front: L R
Частота : 48,0 КГц
Частота кадров : 46,875 кадров/сек (1024 spf)
Метод сжатия : С потерями
Размер потока : 41,8 Мбайт (5%)
Default : Да
Alternate group : 1
Дата пометки : UTC 2016-02-01 21:33:47
Скриншоты
Download
Для скачивания .torrent файлов необходима регистрация
Сайт не распространяет и не хранит электронные версии произведений, а лишь предоставляет доступ к создаваемому пользователями каталогу ссылок на торрент-файлы, которые содержат только списки хеш-сумм
[Профиль]  [ЛС] 

Счастливый Человек

Стаж: 6 лет 11 месяцев

Сообщений: 192

Счастливый Человек · 30-Авг-16 11:04 (спустя 1 месяц 7 дней)

[Цитировать] 

Прекраснейший сериал! Спасибо огромное, что собрали все серии в одну раздачу, а то по одной смотреть неудобно было!
[Профиль]  [ЛС] 

ДонДмитрии

Стаж: 8 лет 11 месяцев

Сообщений: 53

ДонДмитрии · 01-Дек-16 16:03 (спустя 3 месяца 2 дня)

[Цитировать] 

Спасибо - сериал красочный и познавательный!!!
[Профиль]  [ЛС] 

gnoscibilis

Стаж: 8 лет 7 месяцев

Сообщений: 464

gnoscibilis · 30-Мар-17 22:24 (спустя 3 месяца 29 дней)

[Цитировать] 

Бауштоффе писал(а):
72711072Вроде бы 110 уже серий вышло...
А это и есть 110 серий, но сдвоенные = 55 серий.
[Профиль]  [ЛС] 

HrishiKeshi

Стаж: 7 лет 2 месяца

Сообщений: 8

HrishiKeshi · 24-Окт-17 17:20 (спустя 6 месяцев)

[Цитировать] 

Большое спасибо за такой духовно-прекрастный сериал!!! После просмотра сериалов Махабхарата, Вишну-Пураны хотелось чего-то подобного для души, и вот мечта моя исполнилась. Благодарю вас!!!
[Профиль]  [ЛС] 

RandomiZzz02

Стаж: 8 лет 9 месяцев

Сообщений: 13

RandomiZzz02 · 14-Фев-18 16:46 (спустя 3 месяца 20 дней)

[Цитировать] 

Народ, а вы знаете, что на самом деле в этом сериале 110 серий? Я знаю о чем говорю, потому что они у меня есть в наличии, только в мобильном качестве - 11 гиг 110 серий. Сижу вот думаю, качать или не качать эту вашу раздачу на пол сериала... Будда только на середине сериала просветлел в пещере. А дальше сюжет продолжается у вас или на этом всё?
[Профиль]  [ЛС] 

gnoscibilis

Стаж: 8 лет 7 месяцев

Сообщений: 464

gnoscibilis · 23-Фев-18 16:56 (спустя 9 дней)

[Цитировать] 

RandomiZzz02 писал(а):
74799410Народ, а вы знаете, что на самом деле в этом сериале 110 серий?
Это и есть ПОЛНЫЙ сериал, но сдвоенные серии.
Уф, как же ленив народ! Уже и прочитать две строчки не могут.
[Профиль]  [ЛС] 

ingibinka

Стаж: 6 лет 3 месяца

Сообщений: 193


ingibinka · 15-Июл-18 23:24 (спустя 4 месяца 20 дней)

[Цитировать] 

Спасибо большое за хорошее кино! Фильм подвигает думать, познавать новое, вообще больше знать.
[Профиль]  [ЛС] 
 
Ответить
Loading...
Error