(Hard Bop, Post-Bop) [LP] [24/96] Barbara Dennerlein - Orgelspiele - 1984, FLAC (tracks+.cue)

Страницы:  1

Ответить
Автор
Сообщение

nptoz

Top Seed 05* 640r

Стаж: 8 лет 6 месяцев

Сообщений: 4612

nptoz · 19-Июн-16 20:42 (2 года назад)

Barbara Dennerlein - Orgelspiele
Жанр: Hard Bop, Post-Bop
Носитель: LP
Год выпуска: 1984
Лейбл: Dr. Böhm - F668.817
Страна-производитель: Germany
Аудио кодек: FLAC
Тип рипа: tracks+.cue
Формат записи: 32/96
Формат раздачи: 24/96
Продолжительность: 00:41:53
Треклист
Side 1
A1 - Blue Rondo A La Turk 06:22
Dave Brubeck
A2 - This Masquerade 04:21
George Benson
A3 - Asinus Phi 03:51
Barbara Dennerlein
A4 - Recreation 02:59
Barbara Dennerlein
A5 - Eternal Voyage 03:21
Barbara Dennerlein
Side 2
B1 - Werde Munter Mein Gemüthe 03:32
J.S. Bach
B2 - Spain 05:25
Chick Corea
B3 - Prelude No.4 02:24
Frederic Chopin
B4 - Fly Me To The Moon 03:04
Burt Howard
B5 - Recordame 03:35
Joe Henderson
B6 - All In Love Is Fair 03:06
Stevie Wonder
Credits & Notes
Credits
Alle Arrangements von Barbara Dennerlein
Barbara Dennerlein - Orgel und FuBbass
Harald Ruschenbaum - Schlagzeug
Peter Wolpl - Gitarre
Jorg Widmoser - Violine
Orgel und Bass - Bohm Orchester 2002 Digital
Produzent - H. Kriebel
Toningenieur - Gerhard Frei
Photos & Cover Design by Tommi Erhart
Notes
Aufgenommen vom 4.-6.Mai 1984 im Trixi-Tonstudio, Vunchen
Produktion - Dr. Bohm GmbH & Co. KG
Техническая информация
Источник оцифровки: третьим лицом
Код класса состояния винила: Ex
Устройство воспроизведения: Clearaudio Champion Level II
Головка звукоснимателя: Special Edition Denon DL 103
Предварительный усилитель: Pro-Ject Phono Box II
АЦП: Не указано
Программа-оцифровщик: Adobe Audition CS 5.5
Обработка: Light de-Clicking with ClickRepair
Спектр
АЧХ
Уровень записи
Доп. информация:
DR13
———————————————————————————————-
Analyzed folder: 96k Barbara Dennerlein - Orgelspiele
———————————————————————————————-
DR Peak RMS Filename
———————————————————————————————-
DR14 -1.79 dB -19.13 dB A1 Blue Rondo A La Turk.wav
DR15 -1.96 dB -18.98 dB A2 This Masquerade.wav
DR13 -1.55 dB -17.89 dB A3 Asinus Phi.wav
DR13 -2.89 dB -17.58 dB A4 Recreation.wav
DR12 -3.52 dB -17.55 dB A5 Eternal Voyage.wav
DR11 -5.67 dB -19.59 dB B1 Werde Munter Mein Gemüthe.wav
DR14 -2.62 dB -20.74 dB B2 Spain.wav
DR12 -4.09 dB -19.96 dB B3 Prelude No4.wav
DR15 -1.02 dB -18.71 dB B4 Fly Me To The Moon.wav
DR14 -2.49 dB -19.59 dB B5 Recordame.wav
DR14 -1.20 dB -18.46 dB B6 All In Love Is Fair.wav
———————————————————————————————-
Number of files: 11
Official DR value: DR13
==============================================================================================
Download
Для скачивания .torrent файлов необходима регистрация
Сайт не распространяет и не хранит электронные версии произведений, а лишь предоставляет доступ к создаваемому пользователями каталогу ссылок на торрент-файлы, которые содержат только списки хеш-сумм
[Профиль]  [ЛС] 
 
Ответить
Loading...
Error