(Jazz) [LP] [24/192] The Bryan Ferry Orchestra ‎– The Jazz Age - 2012, FLAC (tracks)

Страницы:  1

Ответить
Автор
Сообщение

TheRedDog

Стаж: 4 года 1 месяц

Сообщений: 94

TheRedDog · 07-Май-16 19:38 (2 года 1 месяц назад)

The Bryan Ferry Orchestra - The Jazz Age
Жанр: Jazz
Год выпуска: 2012
Лейбл: BMG - 53800759 2
Страна-производитель: UK
Аудио кодек: FLAC
Тип рипа: tracks
Формат записи: 24/192
Формат раздачи: 24/192
Продолжительность: 38:04
A1 Do The Strand
A2 Love Is The Drug
A3 Don't Stop The Dance
A4 Just Like You
A5 Avalon
A6 The Bogus Man
A7 Slave To Love
B1 This Is Tomorrow
B2 The Only Face
B3 I Thought
B4 Reason Or Rhyme
B5 Virginia Plain
B6 The Island Earth
Для тех кто не знаком со звуком этого альбома или слышал его только на компакте, рекомендуется для начала взглянуть на графики и решить, а стоит ли траффить гектары, если свал частотного спектра начинается от 3 кГц, а полоса записи 18-20 кГц от силы (если судить по шумам мастера).
Демо писалось на обычном стерео граммофоне as is - без сведения каналов в моно и без какой либо обработки - с треском пионэрского костра и шумом массы не особо качественного прессинга. Но видно в нем все и дело - почему то меня этот винил цепляет в отличии от бесшумно-безликого компакта ))
Техданные
Источник оцифровки: сеть*
Код класса состояния винила: EX
Устройство воспроизведения: JVC QL-Y5F
Головка звукоснимателя: Ortofon VMS 20E Mk II
Предварительный усилитель: Nait Audio 522 MM Boards (Naim 3 Int. Amp)
АЦП: н/д
Обработка: нет
*Эта оцифровка шла в комплекте с купленным мной винилом и была сделана as is не мной и только для оценки его состояния (без претензии на качество). Поэтому по поводу граммофона все вопросы не ко мне. Я только порезал на треки, добавил оформление и выложил. Пусть будет на нашем трекере и такое издание. Для любителей графиков дополнительно приведен частотный спектр белого шума, снятый с измерительной пластинки HFS81 (не спрашивайте, не знаю что это такое и для чего он нужен))).
DR
foobar2000 1.1.8 / Dynamic Range Meter 1.1.1
log date: 2016-05-07 11:43:57
--------------------------------------------------------------------------------
Analyzed: The Bryan Ferry Orchestra / The Jazz Age
--------------------------------------------------------------------------------
DR Peak RMS Duration Track
--------------------------------------------------------------------------------
DR14 -1.80 dB -19.03 dB 2:16 01-A1 - Do The Strand
DR13 -3.55 dB -18.66 dB 3:14 02-A2 - Love Is The Drug
DR14 -1.61 dB -21.82 dB 2:52 03-A3 - Don't Stop The Dance
DR13 -4.46 dB -20.69 dB 3:25 04-A4 - Just Like You
DR12 -3.65 dB -17.73 dB 2:23 05-A5 - Avalon
DR12 -4.24 dB -19.29 dB 2:08 06-A6 - The Bogus Man
DR13 -5.10 dB -21.07 dB 2:40 07-A7 - Slave To Love
DR12 -2.32 dB -16.94 dB 2:29 08-B1 - This Is Tomorrow
DR12 -5.59 dB -21.60 dB 2:56 09-B2 - The Only Face
DR13 -2.45 dB -17.16 dB 2:36 10-B3 - I Thought
DR13 -5.75 dB -22.23 dB 4:15 11-B4 - Reason Or Rhyme
DR13 -1.89 dB -17.93 dB 2:14 12-B5 - Virginia Plain
DR12 -4.45 dB -19.52 dB 4:36 13-B6 - The Island Earth
--------------------------------------------------------------------------------
Number of tracks: 13
Official DR value: DR13
Samplerate: 192000 Hz
Channels: 2
Bits per sample: 24
Bitrate: 5108 kbps
Codec: FLAC
================================================================================
Спектр
АЧХ/White noise HFS81
Уровень
Download
Для скачивания .torrent файлов необходима регистрация
Сайт не распространяет и не хранит электронные версии произведений, а лишь предоставляет доступ к создаваемому пользователями каталогу ссылок на торрент-файлы, которые содержат только списки хеш-сумм
[Профиль]  [ЛС] 
 
Ответить
Loading...
Error