Ашока / Chakravartin Ashoka Samrat / Серии: 48/280+ (Ashok Banker) [2015, Индия, История, Драма, HDTVRip][incomplite] (обновлен 14.04.16)

Страницы:  1

Ответить
Автор
Сообщение

kokpa5

Стаж: 6 лет

Сообщений: 12

kokpa5 · 11-Фев-16 13:52 (2 года 8 месяцев назад, ред. 14-Апр-16 00:41)

Ашока / Chakravartin Ashoka Samrat
Год выпуска: 2015
Страна: Индия
Жанр: История, Драма
Серии (количество): 48/280+
Продолжительность: 00:25:00 - 00:45:00
Перевод: любительский одноголосный закадровый (Яшодарани даси - Проект "Oum")
Субтитры: отсутствуют
Режиссёр: Ashok Banker
В ролях: Manoj Joshi, Arhaan Behl, Ankita Sharma, Rumi Khan, Sumit Kaul, Sachin Verma, Yogesh Mahajan, Tunisha Sharma, Ahankara, Tapasvi Nayak, Yashashri Masurkar, KK Goswam, Sonal Parihar, Shailesh Datar, Inaam.
Описание: сериал об императоре Ашоке, внуке Чандрагупты Маурьи. История начинается с рассказа о великом императоре Биндусаре, правителе империи Маурьев. Александр Македонский и его полководец Селевик Никатор покинули территорию Индии но греческое присутствие остается, Хелена (дочь полководца Селевика) воспитывает нынешнего императора и мечтает захватить трон и передать узды правления своему сыну Джастину, но у главного советника Чанакьи другие планы, в тайне от всех он собирается посадить на трон внебрачного сына императора Ашоку (о существовании которого не знает даже сам император)
Качество: HDTVRip
Формат: MP4
Видео кодек: H.264
Аудио кодек: AAC
Видео: H.264/MPEG-4, AVC1, 1920x1080, 25fps, ~3000kbps
Аудио: mp4a: MPEG-4 AAC LC, 44100Hz, Stereo, 128kbps
Доп. информация: первая раздача, с оформлением жду подсказок. возникли проблемы с раздачей, если есть советы то пишите, раздачи которые я скачал раздаются нормально а созданная не хочет запускаться после обновления торрент файла. вчера до обновления вроде было нормально... до 1мбита скорость поднялась Ссылка на предыдущие и альтернативные раздачи
MI
Общие
Формат : MPEG-4
Профиль формата : Base Media
Идентификатор кодека : isom
Общий поток : 3134 Кбит/сек
Программа кодирования : Lavf56.25.101
Видео
Идентификатор : 1
Формат : AVC
Формат/Информация : Advanced Video Codec
Профиль формата : [email protected]
Параметр CABAC формата : Да
Параметр ReFrames формата : 3 кадра
Идентификатор кодека : avc1
Идентификатор кодека/Информация : Advanced Video Coding
Битрейт : 3000 Кбит/сек
Ширина : 1920 пикселей
Высота : 1080 пикселей
Соотношение сторон : 16:9
Режим частоты кадров : Постоянный
Частота кадров : 25,000 кадров/сек
Цветовое пространство : YUV
Субдискретизация насыщенности : 4:2:0
Битовая глубина : 8 бит
Тип развёртки : Прогрессивная
Бит/(Пиксели*Кадры) : 0.058
Размер потока : 977 Мбайт (96%)
Библиотека кодирования : x264 core 140
Настройки программы : cabac=1 / ref=3 / deblock=1:0:0 / analyse=0x3:0x113 / me=hex / subme=7 / psy=1 / psy_rd=1.00:0.00 / mixed_ref=1 / me_range=16 / chroma_me=0 / trellis=1 / 8x8dct=1 / cqm=0 / deadzone=21,11 / fast_pskip=1 / chroma_qp_offset=-2 / threads=36 / lookahead_threads=6 / sliced_threads=0 / nr=0 / decimate=1 / interlaced=0 / bluray_compat=0 / constrained_intra=0 / bframes=3 / b_pyramid=1 / b_adapt=1 / b_bias=0 / direct=1 / weightb=1 / open_gop=0 / weightp=2 / keyint=250 / keyint_min=25 / scenecut=40 / intra_refresh=0 / rc_lookahead=40 / rc=2pass / mbtree=1 / bitrate=3000 / ratetol=1.0 / qcomp=0.60 / qpmin=0 / qpmax=69 / qpstep=4 / cplxblur=20.0 / qblur=0.5 / ip_ratio=1.41 / aq=1:1.00
Язык : Hindi
Аудио
Идентификатор : 2
Формат : AAC
Формат/Информация : Advanced Audio Codec
Профиль формата : LC
Идентификатор кодека : 40
Вид битрейта : Постоянный
Битрейт : 128 Кбит/сек
Каналы : 2 канала
Расположение каналов : Front: L R
Частота : 44,1 КГц
Метод сжатия : С потерями
Задержка видео : 80 мс.
Размер потока : 41,8 Мбайт (4%)
Язык : Russian
Скриншоты
Обновления (просьба заново скачать торрент файл):
14 апреля 2016 [00:40] - добавлена 44,45,46,47,48 серии
13 марта 2016 [22:20] - добавлена 42,43 серии
21 февраля 2016 [12:30] - добавлена 41 серия
13 февраля 2016 [23:30] - добавлена 40 серия
Download
Для скачивания .torrent файлов необходима регистрация
Сайт не распространяет и не хранит электронные версии произведений, а лишь предоставляет доступ к создаваемому пользователями каталогу ссылок на торрент-файлы, которые содержат только списки хеш-сумм
[Профиль]  [ЛС] 

cattat

Стаж: 6 лет 9 месяцев

Сообщений: 14


cattat · 12-Фев-16 12:40 (спустя 22 часа)

[Цитировать] 

Спасибо! Сериал "Сита и Рама" можно ли выложить?
[Профиль]  [ЛС] 

kokpa5

Стаж: 6 лет

Сообщений: 12

kokpa5 · 12-Фев-16 12:46 (спустя 6 мин., ред. 12-Фев-16 12:46)

[Цитировать] 

да, собираюсь выложить Чандрагупта Маурия, Сита и Рама, Будда, Сын Солнца Карна...
лучше скажите что по отдаче...?
[Профиль]  [ЛС] 

cattat

Стаж: 6 лет 9 месяцев

Сообщений: 14


cattat · 12-Фев-16 23:27 (спустя 10 часов)

[Цитировать] 

Спасибо! Спасибо! Спасибо!
Сын Солнца Карна обязательно! Посмотрела несколько серий без перевода, напоминает Махабхарату.
Ашоку скачать не могу, не загружается.
[Профиль]  [ЛС] 

kokpa5

Стаж: 6 лет

Сообщений: 12

kokpa5 · 13-Фев-16 03:08 (спустя 3 часа, ред. 13-Фев-16 03:08)

[Цитировать] 

клиент уТорент 1 82 (из рекомендуемых с настройками)
"http://retracker.local/announce" имя хоста не найдено - как вылечить?
в списке трекеров так же есть адрес "http://bt3.rutracker.cc/ann" но без паскея, так должно быть?
полуоткрытые 0 (0) - и патч не ставится на вин10
подшаманил немного и добавил в файл hosts строки, перекачайте торрент и попробую ещё раз)
[Профиль]  [ЛС] 

kokpa5

Стаж: 6 лет

Сообщений: 12

kokpa5 · 13-Фев-16 13:46 (спустя 10 часов, ред. 13-Фев-16 13:46)

[Цитировать] 

попробуйте щас, если не будет качать то буду раздавать на другом трекере пока не решу проблему с отдачей на этом.
[Профиль]  [ЛС] 

Laquitaine

VIP

Стаж: 11 лет 4 месяца

Сообщений: 2521

Laquitaine · 14-Фев-16 00:52 (спустя 11 часов)

[Цитировать] 

Дорогой kokpa5, большое спасибо
kokpa5 писал(а):
70001274Сита и Рама
За "Siya Ke Ram", заранее, отдельное, большое спасибо :), тоже глянула бы в нормальном качестве Очень красочно, фантасмагорично и любопытно
[Профиль]  [ЛС] 

andron_tavron

Стаж: 9 лет 6 месяцев

Сообщений: 19

andron_tavron · 14-Июн-16 19:47 (спустя 4 месяца, ред. 25-Июн-16 15:42)

[Цитировать] 

49-60
[Профиль]  [ЛС] 

Бхайрава

Стаж: 2 года 2 месяца

Сообщений: 17

Бхайрава · 14-Дек-16 14:29 (спустя 5 месяцев)

[Цитировать] 

жалко забросил релизер выкладывать новые серии, ведь удобно так следить за выходом
[Профиль]  [ЛС] 

ArkadyKiller

Стаж: 8 лет 7 месяцев

Сообщений: 60

ArkadyKiller · 27-Дек-16 18:37 (спустя 13 дней)

[Цитировать] 

Бхайрава писал(а):
72028268жалко забросил релизер выкладывать новые серии, ведь удобно так следить за выходом
у меня на сайте бери
[Профиль]  [ЛС] 

Бхайрава

Стаж: 2 года 2 месяца

Сообщений: 17

Бхайрава · 27-Дек-16 18:40 (спустя 2 мин., ред. 20-Янв-17 13:47)

[Цитировать] 

ArkadyKiller писал(а):
у меня на сайте бери
о, благодарчик братишка
может ты замутишь новую раздачу?
[Профиль]  [ЛС] 

kokpa5

Стаж: 6 лет

Сообщений: 12

kokpa5 · 17-Янв-17 21:49 (спустя 21 день)

[Цитировать] 

извиняюсь что "забросил" но интернет не позволяет увы....
[Профиль]  [ЛС] 

Бхайрава

Стаж: 2 года 2 месяца

Сообщений: 17

Бхайрава · 20-Янв-17 13:49 (спустя 2 дня 15 часов)

[Цитировать] 

бразы, мож кто возьмется вести раздачу сериала с новыми сериями или полностью?
[Профиль]  [ЛС] 
 
Ответить
Loading...
Error