Главная дорога. Все выпуски за 2015 год / НТВ [2015, Документальный, познавательный, SATRip, XviD]

Страницы:  1

Ответить
Автор
Сообщение

intellect

Стаж: 13 лет 11 месяцев

Сообщений: 43680


intellect · 26-Сен-15 23:12 (3 года назад, ред. 13-Янв-16 00:21)

Главная дорога. Все выпуски за 2015 г.
Год выпуска: 2015
Страна: Россия
Жанр: Документальный, познавательный
Ведущие: Денис Юченков, Андрей Федорцов
Продолжительность: 37х~00:30:00
Описание: Главная дорога — первая на российском телевидении информационная программа обо всем, что происходит на дорогах страны. Это полчаса полезной информации не только для автолюбителей, но и для пешеходов.
Качество: SATRip
Формат: AVI
Видео кодек: XviD
Аудио кодек: MP3
Видео: MPEG4, XviD, 720x400 (16:9), 25.000 fps, 1 653 Kbps (0.230 bit/pixel)
Аудио: MP3, 48.0 KHz, 2 ch, 128 Kbps
Все раздачи
Содержание
Главная дорога 2015.01.10
Главная дорога 2015.01.17
Главная дорога 2015.01.24
Главная дорога 2015.01.31
Главная дорога 2015.02.07
Главная дорога 2015.02.14
Главная дорога 2015.02.21
Главная дорога 2015.02.28
Главная дорога 2015.03.07
Главная дорога 2015.03.14
Главная дорога 2015.03.21
Главная дорога 2015.03.28
Главная дорога 2015.04.04
Главная дорога 2015.04.11
Главная дорога 2015.04.18
Главная дорога 2015.04.25
Главная дорога 2015.05.02
Главная дорога 2015.05.10
Главная дорога 2015.05.16
Главная дорога 2015.05.23
Главная дорога 2015.05.30
Главная дорога 2015.06.06
Главная дорога 2015.06.13
Главная дорога 2015.06.20
Главная дорога 2015.06.27
Главная дорога 2015.08.29
Главная дорога 2015.09.05
Главная дорога 2015.09.12
Главная дорога 2015.09.19
Главная дорога 2015.09.26
Главная дорога 2015.10.03
Главная дорога 2015.10.10
Главная дорога 2015.10.17
Главная дорога 2015.10.24
Главная дорога 2015.10.31
Главная дорога 2015.11.07
Главная дорога 2015.11.14
Главная дорога 2015.11.21
Главная дорога 2015.11.28
Главная дорога 2015.12.05
Главная дорога 2015.12.12
Главная дорога 2015.12.19
Главная дорога 2015.12.26
MI
General
Complete name : E:\TEMP\Главная дорога. 2015. SATRip\Главная дорога (2015.01.10).avi
Format : AVI
Format/Info : Audio Video Interleave
File size : 357 MiB
Duration : 27mn 52s
Overall bit rate : 1 788 Kbps
Writing application : TMPGEnc Video Mastering Works 5 Version. 5.0.6.38
Writing library : TMPGEnc Video Mastering Works 5 Version. 5.0.6.38
Video
ID : 0
Format : MPEG-4 Visual
Format profile : Advanced [email protected]
Format settings, BVOP : Yes
Format settings, QPel : No
Format settings, GMC : No warppoints
Format settings, Matrix : Default (MPEG)
Codec ID : XVID
Codec ID/Hint : XviD
Duration : 27mn 52s
Bit rate : 1 653 Kbps
Width : 720 pixels
Height : 400 pixels
Display aspect ratio : 16:9
Frame rate : 25.000 fps
Color space : YUV
Chroma subsampling : 4:2:0
Bit depth : 8 bits
Scan type : Progressive
Compression mode : Lossy
Bits/(Pixel*Frame) : 0.230
Stream size : 330 MiB (92%)
Writing library : XviD 64
Audio
ID : 1
Format : MPEG Audio
Format version : Version 1
Format profile : Layer 3
Mode : Joint stereo
Codec ID : 55
Codec ID/Hint : MP3
Duration : 27mn 52s
Bit rate mode : Constant
Bit rate : 128 Kbps
Channel(s) : 2 channels
Sampling rate : 48.0 KHz
Compression mode : Lossy
Stream size : 25.5 MiB (7%)
Alignment : Aligned on interleaves
Interleave, duration : 250 ms (6.25 video frames)
Interleave, preload duration : 192 ms
Скриншоты
Download
Для скачивания .torrent файлов необходима регистрация
Сайт не распространяет и не хранит электронные версии произведений, а лишь предоставляет доступ к создаваемому пользователями каталогу ссылок на торрент-файлы, которые содержат только списки хеш-сумм
[Профиль]  [ЛС] 

intellect

Стаж: 13 лет 11 месяцев

Сообщений: 43680


intellect · 26-Окт-15 16:40 (спустя 29 дней)

[Цитировать] 

Добавлено
Цитата:
Главная дорога 2015.10.03
Главная дорога 2015.10.10
Главная дорога 2015.10.17
Главная дорога 2015.10.24
[Профиль]  [ЛС] 

mazurkv

Стаж: 9 лет 10 месяцев

Сообщений: 3


mazurkv · 31-Окт-15 11:32 (спустя 4 дня)

[Цитировать] 

А в чем отличие от http://rutracker.org/forum/viewtopic.php?t=4945118?
[Профиль]  [ЛС] 

intellect

Стаж: 13 лет 11 месяцев

Сообщений: 43680


intellect · 31-Окт-15 23:54 (спустя 12 часов)

[Цитировать] 

mazurkv писал(а):
69123585А в чем отличие от http://rutracker.org/forum/viewtopic.php?t=4945118?
Видео, звук данные.
Добавлено
Главная дорога 2015.10.31
[Профиль]  [ЛС] 

ivtitan

Стаж: 10 лет 9 месяцев

Сообщений: 64

ivtitan · 01-Ноя-15 11:30 (спустя 11 часов)

[Цитировать] 

Спасибо.. поглядим на новшества на дорогах... я то что то пару месяцев пропустил )))
[Профиль]  [ЛС] 

intellect

Стаж: 13 лет 11 месяцев

Сообщений: 43680


intellect · 12-Ноя-15 17:19 (спустя 11 дней)

[Цитировать] 

Добавлено
Цитата:
Главная дорога 2015.11.07
[Профиль]  [ЛС] 

intellect

Стаж: 13 лет 11 месяцев

Сообщений: 43680


intellect · 15-Ноя-15 22:22 (спустя 3 дня)

[Цитировать] 

Добавлено
Цитата:
Главная дорога 2015.11.14
[Профиль]  [ЛС] 

intellect

Стаж: 13 лет 11 месяцев

Сообщений: 43680


intellect · 13-Янв-16 00:22 (спустя 1 месяц 27 дней)

[Цитировать] 

Добавлены все недостающие выпуски за 2015 год.
[Профиль]  [ЛС] 

olgamilonenko

Стаж: 1 год

Сообщений: 3


olgamilonenko · 21-Окт-17 15:54 (спустя 1 год 9 месяцев, ред. 21-Окт-17 15:54)

[Цитировать] 

отличненькая передача, нравилась всегда, когда автомобиль купила, вот тогда то и началось.. начала смотреть ее сразу после сдачи экзаменов в автошколе .
[Профиль]  [ЛС] 
 
Ответить
Loading...
Error