(Soul-Jazz, Jazz-Funk) [LP] [24/192] VA – Blue Note Trip - Jazzanova - Lookin' Back - 2013 (2LP), FLAC (image+.cue)

Страницы:  1

Ответить
Автор
Сообщение

Serge770

Стаж: 7 лет 11 месяцев

Сообщений: 322


Serge770 · 25-Апр-15 14:26 (3 года 7 месяцев назад)

Various Artists – Blue Note Trip - Jazzanova - Lookin' Back
Жанр: Soul-Jazz, Jazz-Funk
Носитель: 2×LP
Год выпуска: 2013 (Compilation)
Год первой публикации: 2005
Лейбл: Music On Vinyl ‎(MOVLP741)
Страна-производитель: Netherlands
Аудио кодек: FLAC
Тип рипа: image+.cue
Формат записи: 24/192
Формат раздачи: 24/192
Продолжительность: 00:37:50 + 00:35:16
Источник оцифровки: автором раздачи
Код класса состояния винила: NM
Устройство воспроизведения: Pro-Ject 1-Xpression III
Головка звукоснимателя: Goldring 1012 GX
Предварительный усилитель: Pro-Ject Tube Box
АЦП: ESI [email protected]
Программа-оцифровщик: WavePurity
Обработка: Нет
Jazzanova - (LP1)
01. Bobbi Humphrey - You Make Me Feel So Good (6:13)
02. Donald Byrd - Think Twice (6:09)
03. Bobby Hutcherson - YuYo (6:41)
04. Horace Silver - I've Had A Little Talk (3:46)
05. James Moody And His Bop Men With Art Blakey - Tin Tin Deo (2:48)
06. Herbie Hancock - Maiden Voyage (7:54)
07. Horace Parlan - Congalegra (4:21)
Jazzanova - (LP2)
01. Lee Morgan - Afreaka (7:57)
02. Nicola Conte - A Time For Spring (3:52)
03. Sam Rivers - Beatrice (6:12)
04. Kenny Dorham Octet - Afrodisia (5:06)
05. Freddie Hubbard - Blue Spirits (12:09)
Спектр
АЧХ
Уровень записи
Доп. информация:
Dynamic Range(LP1)
foobar2000 1.3.2 / Dynamic Range Meter 1.1.1
log date: 2015-04-24 20:44:25
--------------------------------------------------------------------------------
Analyzed: Various / Blue Note Trip - Jazzanova - Lookin' Back (LP1)
--------------------------------------------------------------------------------
DR Peak RMS Duration Track
--------------------------------------------------------------------------------
DR11 -2.53 dB -15.27 dB 6:13 01-Bobbi Humphrey - You Make Me Feel So Good
DR12 -1.82 dB -16.10 dB 6:09 02-Donald Byrd - Think Twice
DR12 -0.47 dB -16.67 dB 6:41 03-Bobby Hutcherson - YuYo
DR12 -1.97 dB -16.26 dB 3:46 04-Horace Silver - I've Had A Little Talk
DR11 -2.64 dB -16.07 dB 2:48 05-James Moody And His Bop Men With Art Blakey - Tin Tin Deo
DR11 -1.73 dB -15.41 dB 7:54 06-Herbie Hancock - Maiden Voyage
DR11 -4.03 dB -17.58 dB 4:21 07-Horace Parlan - Congalegra
--------------------------------------------------------------------------------
Number of tracks: 7
Official DR value: DR11
Samplerate: 192000 Hz
Channels: 2
Bits per sample: 24
Bitrate: 5142 kbps
Codec: FLAC
================================================================================
Dynamic Range(LP2)
foobar2000 1.3.2 / Dynamic Range Meter 1.1.1
log date: 2015-04-24 20:45:50
--------------------------------------------------------------------------------
Analyzed: Various / Blue Note Trip - Jazzanova - Lookin' Back (LP2)
--------------------------------------------------------------------------------
DR Peak RMS Duration Track
--------------------------------------------------------------------------------
DR13 -0.98 dB -15.38 dB 7:57 01-Lee Morgan - Afreaka
DR10 -2.99 dB -15.16 dB 3:52 02-Nicola Conte - A Time For Spring
DR13 -2.20 dB -17.36 dB 6:12 03-Sam Rivers - Beatrice
DR10 -1.13 dB -14.22 dB 5:06 04-Kenny Dorham Octet - Afrodisia
DR12 -0.63 dB -14.93 dB 12:09 05-Freddie Hubbard - Blue Spirits
--------------------------------------------------------------------------------
Number of tracks: 5
Official DR value: DR12
Samplerate: 192000 Hz
Channels: 2
Bits per sample: 24
Bitrate: 5133 kbps
Codec: FLAC
================================================================================
Download
Для скачивания .torrent файлов необходима регистрация
Сайт не распространяет и не хранит электронные версии произведений, а лишь предоставляет доступ к создаваемому пользователями каталогу ссылок на торрент-файлы, которые содержат только списки хеш-сумм
[Профиль]  [ЛС] 
 
Ответить
Loading...
Error