Автодилеры (Махинаторы) - Сезон 9 (Серии 1-15 из 15) / Wheeler Dealers - Series 9 [2012, UK, Автошоу, HDTVRip 720p]

Страницы:  1

Ответить
Автор
Сообщение

intellect

Стаж: 13 лет 7 месяцев

Сообщений: 42242


intellect · 13-Апр-15 23:33 (3 года 2 месяца назад, ред. 14-Апр-15 01:16)

Автодилеры (Махинаторы) Сезон 9
Wheeler Dealers - Series 9

Страна: UK
Жанр: Автошоу
Дата выпуска: 2012
Продолжительность эпизода: 45 min
Перевод: Discovery Russia
Субтитры: Нет
Описание: Автодилеры это британская телепередача производства Attaboy TV для канала Discovery, ведущими являются Майк Брюер и механик Эд Чайна при содействии со стороны технического консультанта Пола Брэкли. Идея этого шоу в том, что Брюер и Чайна находятся на миссии по спасению ремонтопригодных автомобилей энтузиастов, путем ремонта или иных улучшений конкретной модели с определенным бюджетом, а затем продают её новому владельцу.

Автор рипа: hannibal
Качество видео: HDTVRip 720p
Формат видео: MKV
Видео: MPEG4 Video (H264) 1280x720 25.00fps 3500Kbps
Аудио:
Dolby AC3 48000Hz 6ch 384Kbps Оригинал
Dolby AC3 48000Hz 2ch 192Kbps Discovery Russia (отдельным файлом)
MediaInfo
General
Format : Matroska
Format version : Version 2
File size : 1.21 GiB
Duration : 44mn 9s
Overall bit rate : 3 908 Kbps
Encoded date : UTC 2012-03-21 09:10:57
Writing application : mkvmerge v4.9.1 ('Ich will') built on Jul 11 2011 23:53:15
Writing library : libebml v1.2.1 + libmatroska v1.1.1
Video
ID : 1
Format : AVC
Format/Info : Advanced Video Codec
Format profile : [email protected]
Format settings, CABAC : Yes
Format settings, ReFrames : 4 frames
Codec ID : V_MPEG4/ISO/AVC
Duration : 44mn 9s
Bit rate : 3 500 Kbps
Width : 1 280 pixels
Height : 720 pixels
Display aspect ratio : 16:9
Frame rate : 25.000 fps
Color space : YUV
Chroma subsampling : 4:2:0
Bit depth : 8 bits
Scan type : Progressive
Bits/(Pixel*Frame) : 0.152
Stream size : 1.06 GiB (88%)
Writing library : x264 core 116 r2074 2641b9e
Encoding settings : cabac=1 / ref=2 / deblock=1:0:0 / analyse=0x3:0x113 / me=hex / subme=4 / psy=1 / psy_rd=1.00:0.00 / mixed_ref=1 / me_range=16 / chroma_me=1 / trellis=0 / 8x8dct=1 / cqm=0 / deadzone=21,11 / fast_pskip=1 / chroma_qp_offset=0 / threads=6 / sliced_threads=0 / nr=0 / decimate=1 / interlaced=0 / bluray_compat=0 / constrained_intra=0 / bframes=3 / b_pyramid=2 / b_adapt=1 / b_bias=0 / direct=3 / weightb=1 / open_gop=0 / weightp=2 / keyint=250 / keyint_min=25 / scenecut=40 / intra_refresh=0 / rc_lookahead=40 / rc=abr / mbtree=1 / bitrate=3500 / ratetol=1.0 / qcomp=0.60 / qpmin=10 / qpmax=51 / qpstep=4 / vbv_maxrate=50000 / vbv_bufsize=50000 / nal_hrd=none / ip_ratio=1.40 / aq=1:1.00
Default : Yes
Forced : No
Audio
ID : 2
Format : AC-3
Format/Info : Audio Coding 3
Mode extension : CM (complete main)
Codec ID : A_AC3
Duration : 44mn 9s
Bit rate mode : Constant
Bit rate : 384 Kbps
Channel(s) : 6 channels
Channel positions : Front: L C R, Side: L R, LFE
Sampling rate : 48.0 KHz
Bit depth : 16 bits
Compression mode : Lossy
Delay relative to video : 16ms
Stream size : 121 MiB (10%)
Default : Yes
Forced : No
Список серий, скриншоты
1. Fiat Dino Coupe 2400 (20 March 2012)

2. Morgan +4 (27 March 2012)

3. BMW M5 (3 April 2012)

4. Renault Alpine A310 (10 April 2012)

5. Porsche 914 (17 April 2012)

6. Mercedes-Benz G-Class (24 April 2012)

7. Jaguar XK8 (1 May 2012)

8. Gardner Douglas Cobra (18 September 2012)

9. Jaguar Mk2 (25 September 2012)

10. Willys MB (2 October 2012)

11. Nissan Skyline R33 (9 October 2012)

12. Triumph TR6 (16 October 2012)

13. BMW Isetta (23 October 2012)

14. Ford Mustang Fastback (30 October 2012)

15. Mercedes-Benz SLK (6 November 2012)
Download
Для скачивания .torrent файлов необходима регистрация
Сайт не распространяет и не хранит электронные версии произведений, а лишь предоставляет доступ к создаваемому пользователями каталогу ссылок на торрент-файлы, которые содержат только списки хеш-сумм
[Профиль]  [ЛС] 

*13*

VIP (Заслуженный)

Стаж: 12 лет 1 месяц

Сообщений: 18666

*13* · 14-Апр-15 12:51 (спустя 13 часов)

[Цитировать] 

gamerka
В раздаче файлы обозначены как 10 сезон. Ошибка?
[Профиль]  [ЛС] 

intellect

Стаж: 13 лет 7 месяцев

Сообщений: 42242


intellect · 14-Апр-15 19:05 (спустя 6 часов)

[Цитировать] 

*13*
я хотел сохранить оригинальные названия файлов и не стал переименовывать, на момент выхода этот сезон называли 10-м, сейчас это считается 9-м.
настоящий 10-й сезон был в 2013 году, так что этот я зазвал 2010 (2012).
Предлагаете переименовать папку? файлы?
[Профиль]  [ЛС] 

*13*

VIP (Заслуженный)

Стаж: 12 лет 1 месяц

Сообщений: 18666

*13* · 14-Апр-15 21:23 (спустя 2 часа 18 мин.)

[Цитировать] 

gamerka писал(а):
67507262Предлагаете переименовать папку? файлы?
Всё нормально. Думаю уже не стоит ничего переименовывать и перезаливать!
Оставим всё так, как есть.
[Профиль]  [ЛС] 

nickson60a

Top Bonus 03* 1TB

Стаж: 8 лет 3 месяца

Сообщений: 75

nickson60a · 08-Июн-15 14:31 (спустя 1 месяц 23 дня)

[Цитировать] 

Уважаемый релизер или другие люди добрые! Как воспроизвести это кинцо, если русские аудиодорожки в виде отдельных файлов? Заранее спасибо за помощь!
[Профиль]  [ЛС] 

boxrsr

Стаж: 7 лет 7 месяцев

Сообщений: 121

boxrsr · 15-Окт-15 10:49 (спустя 4 месяца 6 дней)

[Цитировать] 

mkvmerge
[Профиль]  [ЛС] 
 
Ответить
Loading...
Error