Автодилеры (Махинаторы) - Сезон 8 / Wheeler Dealers - Series 8 [2011, UK, Автошоу, HDTVRip 720p]

Страницы:  1

Ответить
Автор
Сообщение

intellect

Стаж: 13 лет 10 месяцев

Сообщений: 43574


intellect · 13-Апр-15 23:26 (3 года 5 месяцев назад, ред. 13-Апр-15 23:31)

Автодилеры (Махинаторы) - Сезон 8
Wheeler Dealers - Series 8
Страна: UK
Жанр: Автошоу
Дата выпуска: 2011
Продолжительность эпизода: 45 min
Перевод: Отсутствует
Субтитры: Нет
Описание: Автодилеры это британская телепередача производства Attaboy TV для канала Discovery, ведущими являются Майк Брюэр и механик Эд Чайна при содействии со стороны технического консультанта Пола Брэкли. Идея этого шоу в том, что Брюэр и Чайна находятся на миссии по спасению ремонтопригодных автомобилей энтузиастов, путем ремонта или иных улучшений конкретной модели с определенным бюджетом, а затем продают её новому владельцу.

Автор рипа: hannibal
Качество видео: HDTVRip 720p
Формат видео: MKV
Видео: MPEG4 Video (H264) 1280x720 25.00fps 3300Kbps (2700~4200Kbps)
Аудио: Dolby AC3 48000Hz 6ch 384Kbps (10 эпизод - 128Kbps stereo)
MediaInfo
General
Format : Matroska
Format version : Version 2
File size : 1.13 GiB
Duration : 43mn 48s
Overall bit rate mode : Variable
Overall bit rate : 3 705 Kbps
Encoded date : UTC 2011-04-06 12:34:26
Writing application : mkvmerge v4.6.0 ('Still Crazy After All These Years') built on Mar 10 2011 02:50:32
Writing library : libebml v1.2.0 + libmatroska v1.1.0
Video
ID : 1
Format : AVC
Format/Info : Advanced Video Codec
Format profile : [email protected]
Format settings, CABAC : Yes
Format settings, ReFrames : 3 frames
Codec ID : V_MPEG4/ISO/AVC
Duration : 43mn 48s
Bit rate mode : Variable
Bit rate : 3 300 Kbps
Maximum bit rate : 40.0 Mbps
Width : 1 280 pixels
Height : 720 pixels
Display aspect ratio : 16:9
Frame rate : 25.000 fps
Color space : YUV
Chroma subsampling : 4:2:0
Bit depth : 8 bits
Scan type : Progressive
Bits/(Pixel*Frame) : 0.143
Stream size : 1 018 MiB (88%)
Writing library : x264 core 114 r1913 5fd3dce
Encoding settings : cabac=1 / ref=4 / deblock=1:0:0 / analyse=0x3:0x113 / me=hex / subme=7 / psy=1 / psy_rd=1.00:0.00 / mixed_ref=1 / me_range=16 / chroma_me=1 / trellis=0 / 8x8dct=1 / cqm=0 / deadzone=21,11 / fast_pskip=1 / chroma_qp_offset=-2 / threads=6 / sliced_threads=0 / slices=4 / nr=0 / decimate=1 / interlaced=0 / constrained_intra=0 / bframes=3 / b_pyramid=1 / b_adapt=1 / b_bias=0 / direct=1 / weightb=1 / open_gop=0 / weightp=2 / keyint=24 / keyint_min=2 / scenecut=40 / intra_refresh=0 / rc_lookahead=24 / rc=abr / mbtree=1 / bitrate=3300 / ratetol=1.0 / qcomp=0.60 / qpmin=10 / qpmax=51 / qpstep=4 / vbv_maxrate=40000 / vbv_bufsize=30000 / nal_hrd=vbr / ip_ratio=1.40 / aq=1:1.00
Default : Yes
Forced : No
Audio
ID : 2
Format : AC-3
Format/Info : Audio Coding 3
Mode extension : CM (complete main)
Codec ID : A_AC3
Duration : 43mn 48s
Bit rate mode : Constant
Bit rate : 384 Kbps
Channel(s) : 6 channels
Channel positions : Front: L C R, Side: L R, LFE
Sampling rate : 48.0 KHz
Bit depth : 16 bits
Compression mode : Lossy
Stream size : 120 MiB (10%)
Default : Yes
Forced : No
Список серий, скриншоты
1. Jaguar E-Type Series 3 (5 April 2011)

2. Mini Moke (12 April 2011)

3. Range Rover P38 (19 April 2011)

4. Austin-Healey "Frogeye" Sprite (26 April 2011)

5. Saab 9-3 Turbo Convertible (3 May 2011)

6. Dodge Charger (4 October 2011)

7. DeLorean DMC-12 (11 October 2011)

8. Chevrolet 3100 Stepside (18 October 2011)

9. Volkswagen Karmann Ghia Type 14 Cabriolet (25 October 2011)

10. Chevrolet Bel Air 210 (1 November 2011)
Download
Для скачивания .torrent файлов необходима регистрация
Сайт не распространяет и не хранит электронные версии произведений, а лишь предоставляет доступ к создаваемому пользователями каталогу ссылок на торрент-файлы, которые содержат только списки хеш-сумм
[Профиль]  [ЛС] 

alxndrAlxvch

Стаж: 7 лет 10 месяцев

Сообщений: 116


alxndrAlxvch · 27-Апр-15 16:17 (спустя 13 дней, ред. 19-Янв-17 21:42)

[Цитировать] 

А подогнанный перевод нужен?
https://cloud.mail.ru/public/79Rg/JxCTUHq89
[Профиль]  [ЛС] 

[email protected]

Стаж: 9 лет 1 месяц

Сообщений: 17


[email protected] · 18-Окт-16 23:00 (спустя 1 год 5 месяцев)

[Цитировать] 

А где можно сезоны 4-7 с английской дорожкой скачать? )
[Профиль]  [ЛС] 

Metzengerstein

Стаж: 9 лет 11 месяцев

Сообщений: 59

Metzengerstein · 29-Мар-17 15:28 (спустя 5 месяцев 10 дней)

[Цитировать] 

alxndrAlxvch писал(а):
67636228А подогнанный перевод нужен?
https://cloud.mail.ru/public/79Rg/JxCTUHq89
Спасибо
[Профиль]  [ЛС] 
 
Ответить
Loading...
Error