Автодилеры (Махинаторы) / Wheeler Dealers / Сезон 10 / Эпизоды 1-12 из 12 [2013, UK, Автошоу, HDTVRip, 720p, RUS/ENG]

Страницы:  1

Ответить
Автор
Сообщение

БэстЛайв

Стаж: 8 лет 6 месяцев

Сообщений: 470

БэстЛайв · 07-Апр-15 06:52 (3 года 8 месяцев назад)

Автодилеры (Махинаторы) / Wheeler Dealers / Сезон 10
Страна: UK
Жанр: Автошоу
Дата выпуска: 2013
Продолжительность: 45 мин.
Перевод: Профессиональный (одноголосный закадровый)
Описание: Автодилеры это британская телепередача производства Attaboy TV для канала Discovery, ведущими являются Майк Брюэр и механик Эд Чайна при содействии со стороны технического консультанта Пола Брэкли. Идея этого шоу в том, что Брюэр и Чайна находятся на миссии по спасению ремонтопригодных автомобилей энтузиастов, путем ремонта или иных улучшений конкретной модели с определенным бюджетом, а затем продают её новому владельцу.
Официальный список серий
Доп. информация: Переделанная раздача с Махинаторами. В первых двух серия вырезана двойная заставка автодилеров (в месте где идет прерывание на рекламу) + убран Delay теперь все по 0. Русские дорожки, полностью переделаны (делал со своих исходников)
Оформление позаимствовано у gamerka. Также раздача согласованна с ним. Спасибо ему большое.
07.04.2015 - Раздача переоформлена
Автор рипа: knifesharp (1-2 серия), остальные от C4TV,
Исходники и синхронизация Русских дорожек BLS
Семпл: http://multi-up.com/921929
Качество видео: HDTVRip 720p
Формат видео: MKV
Видео: MPEG4 Video (AVC); 1280x720p (16:9); 25.000 fps, 3 158 Kbps
Аудио 1: RUS AC3; 48000 Hz; 2 ch; 192 kbps Discovery Russia (1-12 серии)
Аудио 2: ENG AC3; 48000 Hz; 6 ch; 384 kbps
MediaInfo
Wheeler.Dealers.S10E01.Aston.Martin.DB7.720p.Rus.Eng_BL.mkv
Format : Matroska
Format version : Version 2
File size : 1.17 GiB
Duration : 43mn 52s
Overall bit rate : 3 810 Kbps
Encoded date : UTC 2013-11-08 16:05:19
Writing application : mkvmerge v4.4.0 ('Die Wiederkehr') сборка от Oct 31 2010 21:52:48
Writing library : libebml v1.0.0 + libmatroska v1.0.0
Video
ID : 1
Format : AVC
Format/Info : Advanced Video Codec
Format profile : [email protected]
Format settings, CABAC : Yes
Format settings, ReFrames : 5 frames
Codec ID : V_MPEG4/ISO/AVC
Duration : 43mn 52s
Bit rate : 3 158 Kbps
Width : 1 280 pixels
Height : 720 pixels
Display aspect ratio : 16:9
Frame rate mode : Constant
Frame rate : 25.000 fps
Color space : YUV
Chroma subsampling : 4:2:0
Bit depth : 8 bits
Scan type : Progressive
Bits/(Pixel*Frame) : 0.137
Stream size : 991 MiB (83%)
Default : Yes
Forced : No
Matrix coefficients : BT.709
Audio #1
ID : 2
Format : AC-3
Format/Info : Audio Coding 3
Mode extension : CM (complete main)
Format settings, Endianness : Big
Codec ID : A_AC3
Duration : 43mn 52s
Bit rate mode : Constant
Bit rate : 192 Kbps
Channel(s) : 2 channels
Channel positions : Front: L R
Sampling rate : 48.0 KHz
Bit depth : 16 bits
Compression mode : Lossy
Stream size : 60.2 MiB (5%)
Language : Russian
Default : Yes
Forced : No
Audio #2
ID : 3
Format : AC-3
Format/Info : Audio Coding 3
Mode extension : CM (complete main)
Format settings, Endianness : Big
Codec ID : A_AC3
Duration : 43mn 52s
Bit rate mode : Constant
Bit rate : 384 Kbps
Channel(s) : 6 channels
Channel positions : Front: L C R, Side: L R, LFE
Sampling rate : 48.0 KHz
Bit depth : 16 bits
Compression mode : Lossy
Stream size : 120 MiB (10%)
Language : English
Default : No
Forced : No
Список серий, скриншоты
1. Aston Martin DB7 (19 February 2013)

2. Ford Escort Mk1 Mexico (26 February 2013)

3. Range Rover L322 TD6 Vogue (5 March 2013)

4. Porsche Boxster S (12 March 2013)

5. Morris Minor 1000 Traveller (19 March 2013)

6. TVR Cerbera (26 March 2013)

7. Lamborghini Urraco P250S (17 September 2013)

8. Ford Popular 103E (24 September 2013)

9. Chevrolet Corvette (C2) (1 October 2013)

10. FSO Syrena 105L (8 October 2013)

11. Lotus Elise (15 October 2013)

12. Cadillac de Ville (22 October 2013)
Спектр
Download
Для скачивания .torrent файлов необходима регистрация
Сайт не распространяет и не хранит электронные версии произведений, а лишь предоставляет доступ к создаваемому пользователями каталогу ссылок на торрент-файлы, которые содержат только списки хеш-сумм
[Профиль]  [ЛС] 

БэстЛайв

Стаж: 8 лет 6 месяцев

Сообщений: 470

БэстЛайв · 07-Апр-15 07:09 (спустя 16 мин.)

[Цитировать] 

Попытка восстановить Махинаторов. У кого осталась данная раздача на HDD присоединяйтесь. Торрент файл абсолютно не изменился.
Также отдельно нужно сказать большое спасибо хорошему человеку(модератору) с ником *13*
скрытый текст
Надеюсь ПО пройдет мимо.
[Профиль]  [ЛС] 

100king4u

Стаж: 10 лет 1 месяц

Сообщений: 267

100king4u · 24-Май-15 04:36 (спустя 1 месяц 16 дней)

[Цитировать] 

Посмотрим что это такое, ну и попутно пораздаю...
[Профиль]  [ЛС] 

lukey

Стаж: 9 лет 4 месяца

Сообщений: 64

lukey · 31-Июл-15 14:03 (спустя 2 месяца 7 дней)

[Цитировать] 

всё скачит на
в мкв тс ?
[Профиль]  [ЛС] 

Hydrochlor

Стаж: 8 лет 6 месяцев

Сообщений: 1699

Hydrochlor · 02-Ноя-15 21:43 (спустя 3 месяца 2 дня)

[Цитировать] 

Доброго.
Стоит ли ждать продолжения т.е 2014г и 2015г или может на трекере есть где в таком же качестве ?
[Профиль]  [ЛС] 

Onionlanky

Стаж: 8 лет 9 месяцев

Сообщений: 12


Onionlanky · 11-Май-16 17:16 (спустя 6 месяцев)

[Цитировать] 

В Light Alloy почему-то звук иногда заикается и теряется часть фразы, бывает такое периодически. В чем проблема понять не могу.
[Профиль]  [ЛС] 

martinriggs

Стаж: 3 года

Сообщений: 8


martinriggs · 17-Мар-17 15:23 (спустя 10 месяцев)

[Цитировать] 

Замечательная программа! Спасибо! За англ - отдельное РЭХМЭТ!))
[Профиль]  [ЛС] 
 
Ответить
Loading...
Error