Феи: Легенда о чудовище / Legend of the NeverBeast (Стив Лотер / Steve Loter) [2014, мультфильм, фэнтези, приключения, семейный, BDRip] Dub + Sub Rus, Eng + Original Eng

Страницы:  1

Ответить
Автор
Сообщение

donlego33

Top Seed 03* 160r

Стаж: 10 лет 5 месяцев

Сообщений: 273

donlego33 · 09-Мар-15 23:11 (4 года 4 месяца назад, ред. 23-Мар-15 08:07)



Феи: Легенда о чудовище / Legend of the NeverBeast
Страна: США
Жанр: мультфильм, фэнтези, приключения, семейный
Продолжительность: 01:16:14
Год выпуска: 2014
Перевод: Профессиональный (дублированный) Лицензия
Субтитры: русские, английские (полные, SDH)
Режиссёр: Стив Лотер / Steve Loter
Роли озвучивали: Мэй Уитман, Джиннифер Гудвин, Розарио Доусон, Люси Лью, Томас Леннон, Рэйвен, Памела Адлон, Меган Хилти, Мелани Браун
Описание: Анимационная сказка расскажет удивительную историю о веселой и талантливой фее Фауне, которая убеждена в том, что о книге нельзя судить по ее обложке, впрочем, как и о животном по его клыкам, поэтому она дружит с таинственным существом громадных размеров из Нетландии по прозвищу Чудовище.
| Сэмпл | IMDB | КиноПоиск |

Автор рипа: sociolog_melvas
Качество: BDRip (источник: THE_LEGEND_OF_THE_NEVERBEAST_HDCLUB)
Формат: AVI
Видео: 704x400 (1.76:1), 23,976 fps, XviD build 65 ~1816 kbps avg, 0.27 bit/pixel
Аудио: 48 kHz, AC3 Dolby Digital, 3/2 (L,C,R,l,r) + LFE ch, ~448 kbps avg (RUS)
Аудио 2: 48 kHz, AC3 Dolby Digital, 3/2 (L,C,R,l,r) + LFE ch, ~448 kbps avg (ENG)
Подробные технические данные
Общее
Полное имя : F:\BD torrent\mytorrentsup\Fei.Legenda.o.chudovische.2014.DUAL.BDRip.XviD.AC3.-HQCLUB\Fei.Legenda.o.chudovische.2014.DUAL.BDRip.XviD.AC3.-HQCLUB.avi
Формат : AVI
Формат/Информация : Audio Video Interleave
Размер файла : 1,45 Гбайт
Продолжительность : 1 ч. 16 м.
Общий поток : 2727 Кбит/сек
Название фильма : Феи: Легенда о чудовище / Legend of the NeverBeast (2014) BDRip
Жанр : фэнтези, приключения
Программа кодирования : VirtualDubMod 1.5.10.2 (build 2540/release)
Примечание : 22.03.2015
Видео
Идентификатор : 0
Формат : MPEG-4 Visual
Профиль формата : Advanced [email protected]
Параметр BVOP формата : 1
Параметр QPel формата : Нет
Параметр GMC формата : Без точки перехода
Параметр матрицы формата : Выборочная
Идентификатор кодека : XVID
Идентификатор кодека/Подсказка : XviD
Продолжительность : 1 ч. 16 м.
Битрейт : 1817 Кбит/сек
Ширина : 704 пикселя
Высота : 400 пикселей
Соотношение сторон : 16:9
Частота кадров : 23,976 кадра/сек
Цветовое пространство : YUV
Субдискретизация насыщенности : 4:2:0
Битовая глубина : 8 бит
Тип развёртки : Прогрессивная
Метод сжатия : С потерями
Бит/(Пиксели*Кадры) : 0.269
Размер потока : 991 Мбайт (67%)
Библиотека кодирования : XviD 65
Аудио #1
Идентификатор : 1
Формат : AC-3
Формат/Информация : Audio Coding 3
Расширение режима : CM (complete main)
Параметр Endianness формата : Big
Идентификатор кодека : 2000
Продолжительность : 1 ч. 16 м.
Вид битрейта : Постоянный
Битрейт : 448 Кбит/сек
Каналы : 6 каналов
Расположение каналов : Front: L C R, Side: L R, LFE
Частота : 48,0 КГц
Битовая глубина : 16 бит
Метод сжатия : С потерями
Размер потока : 244 Мбайт (16%)
Выравнивание : Разделение по промежуткам
Продолжительность промежутка : 42 мс. (1,00 видеокадр)
Время предзагрузки промежутка : 500 мс.
Аудио #2
Идентификатор : 2
Формат : AC-3
Формат/Информация : Audio Coding 3
Расширение режима : CM (complete main)
Параметр Endianness формата : Big
Идентификатор кодека : 2000
Продолжительность : 1 ч. 16 м.
Вид битрейта : Постоянный
Битрейт : 448 Кбит/сек
Каналы : 6 каналов
Расположение каналов : Front: L C R, Side: L R, LFE
Частота : 48,0 КГц
Битовая глубина : 16 бит
Метод сжатия : С потерями
Размер потока : 244 Мбайт (16%)
Выравнивание : Разделение по промежуткам
Продолжительность промежутка : 42 мс. (1,00 видеокадр)
Время предзагрузки промежутка : 500 мс.
Общее
Полное имя : F:\BD torrent\mytorrentsup\Fei.Legenda.o.chudovische.2014.DUAL.BDRip.XviD.AC3.-HQCLUB\Fei.Legenda.o.chudovische.2014.DUAL.BDRip.XviD.AC3.-HQCLUB.ENG.SDH.srt
Формат : SubRip
Размер файла : 69,6 Кбайт
Текст
Формат : SubRip
Метод сжатия : Без потерь
Общее
Полное имя : F:\BD torrent\mytorrentsup\Fei.Legenda.o.chudovische.2014.DUAL.BDRip.XviD.AC3.-HQCLUB\Fei.Legenda.o.chudovische.2014.DUAL.BDRip.XviD.AC3.-HQCLUB.ENG.srt
Формат : SubRip
Размер файла : 51,4 Кбайт
Текст
Формат : SubRip
Метод сжатия : Без потерь
Общее
Полное имя : F:\BD torrent\mytorrentsup\Fei.Legenda.o.chudovische.2014.DUAL.BDRip.XviD.AC3.-HQCLUB\Fei.Legenda.o.chudovische.2014.DUAL.BDRip.XviD.AC3.-HQCLUB.RUS.srt
Размер файла : 48,6 Кбайт
Скриншоты
Торрент файл перезалит.Замена рипа на BDRip + Субтитры! Пожалуйста перекачайте торрент файл!
Download
Для скачивания .torrent файлов необходима регистрация
Сайт не распространяет и не хранит электронные версии произведений, а лишь предоставляет доступ к создаваемому пользователями каталогу ссылок на торрент-файлы, которые содержат только списки хеш-сумм
[Профиль]  [ЛС] 

ninja-76

Стаж: 9 лет 9 месяцев

Сообщений: 2

ninja-76 · 10-Мар-15 20:34 (спустя 21 час)

давно ждал. автору самое большое аригато
[Профиль]  [ЛС] 

Akrorsar

Стаж: 8 лет 10 месяцев

Сообщений: 132


Akrorsar · 11-Мар-15 00:03 (спустя 3 часа)

сделайте пожалуйста мп3 ави, не тянет телек у брата(
[Профиль]  [ЛС] 

Mamba8888

Стаж: 4 года 6 месяцев

Сообщений: 1


Mamba8888 · 06-Апр-15 19:07 (спустя 26 дней)

Спасибо за мульт!!!! Одна проблема, из-за английского ничего не слышно, как оставить только русский перевод?
[Профиль]  [ЛС] 

Lorna_l

Стаж: 8 лет 5 месяцев

Сообщений: 1


Lorna_l · 29-Апр-15 16:47 (спустя 22 дня)

Люди, спасите! Как сделать по-русски? Деть сейчас из меня всю душу вынет, хочет посмотреть, а там английский так все забивает многослойно, что смотреть невозможно.
[Профиль]  [ЛС] 

katarina110285

Стаж: 6 лет 7 месяцев

Сообщений: 1


katarina110285 · 06-Май-15 08:36 (спустя 6 дней)

Lorna_l писал(а):
67653040Люди, спасите! Как сделать по-русски? Деть сейчас из меня всю душу вынет, хочет посмотреть, а там английский так все забивает многослойно, что смотреть невозможно.
та проблема! что делать?
[Профиль]  [ЛС] 

Radomirkka

Стаж: 9 лет 6 месяцев

Сообщений: 27


Radomirkka · 29-Ноя-15 22:00 (спустя 6 месяцев)

Спасибо большущее за раздачу.
Феи - самые очаровательные мультфильмы из всех. Ни одного отрицательного героя или злодея. Обожаю. Но качаю как бы для дочки
[Профиль]  [ЛС] 

xkerlaedax

Стаж: 9 лет 6 месяцев

Сообщений: 1


xkerlaedax · 29-Ноя-15 22:52 (спустя 51 мин.)

Супруге понравился этот мультик. Он очень добрый.
[Профиль]  [ЛС] 

Kanzler0

Стаж: 10 лет 6 месяцев

Сообщений: 88

Kanzler0 · 08-Фев-19 10:08 (спустя 3 года 2 месяца)

Lorna_l писал(а):
67653040Люди, спасите! Как сделать по-русски? Деть сейчас из меня всю душу вынет, хочет посмотреть, а там английский так все забивает многослойно, что смотреть невозможно.
Нужно в плеере выбирать нужную звуковую дорожку и отключить (выбрать) нужные субтитры
[Профиль]  [ЛС] 
 
Ответить
Loading...
Error