Михаил Задорнов - История не для всех [2013, Концерт, юмор, сатира, SATRip]

Страницы:  1

Ответить
Автор
Сообщение

sao89

Top Seed 02* 80r

Стаж: 10 лет 5 месяцев

Сообщений: 435

sao89 · 10-Ноя-13 15:14 (5 лет 1 месяц назад, ред. 10-Ноя-13 22:12)

Михаил Задорнов - История не для всех
Год выпуска: 2013
Страна: Россия
Жанр: Концерт, юмор, сатира
Продолжительность: 01:49:32
Перевод: Не требуется
Русские субтитры: нет
Описание: Лучшие произведения сатирика Михаила Задорнова о парадоксах русской истории, её искажениях в учебниках и… летописях.
Качество: SATRip
Формат: AVI
Видео: 704x528 (1.33:1), 25 fps, XviD build 73, 1455 kbps avg, 0.16 bit/pixel
Аудио: MPEG Layer 3, 48 kHz, 2 ch, 192.00 kbps avg
Релиз:
MediaInfo
Общее
Полное имя : C:\Фильмы\Михаил Задорнов. История не для всех.2013.SATRip.avi
Формат : AVI
Формат/Информация : Audio Video Interleave
Размер файла : 1,18 Гбайт
Продолжительность : 1 ч. 42 м.
Общий поток : 1657 Кбит/сек
Программа кодирования : VirtualDubMod 1.5.10.3 | www.virtualdub-fr.org || (build 2550/release)
Библиотека кодирования : VirtualDubMod build 2550/release
Видео
Идентификатор : 0
Формат : MPEG-4 Visual
Профиль формата : Advanced [email protected]
Параметр BVOP формата : 1
Параметр QPel формата : Нет
Параметр GMC формата : Без точки перехода
Параметр матрицы формата : Default (H.263)
Идентификатор кодека : XVID
Идентификатор кодека/Подсказка : XviD
Продолжительность : 1 ч. 42 м.
Битрейт : 1456 Кбит/сек
Ширина : 704 пикселя
Высота : 528 пикселей
Соотношение сторон : 4:3
Частота кадров : 25,000 кадров/сек
Цветовое пространство : YUV
Субдискретизация насыщенности : 4:2:0
Битовая глубина : 8 бит
Тип развёртки : Прогрессивная
Метод сжатия : С потерями
Бит/(Пиксели*Кадры) : 0.157
Размер потока : 1,04 Гбайт (88%)
Библиотека кодирования : XviD 73
Аудио
Идентификатор : 1
Формат : MPEG Audio
Версия формата : Version 1
Профиль формата : Layer 3
Идентификатор кодека : 55
Идентификатор кодека/Подсказка : MP3
Продолжительность : 1 ч. 42 м.
Вид битрейта : Постоянный
Битрейт : 192 Кбит/сек
Каналы : 2 канала
Частота : 48,0 КГц
Метод сжатия : С потерями
Размер потока : 140 Мбайт (12%)
Выравнивание : Соединение по промежуткам
Продолжительность промежутка : 40 мс. (1,00 видеокадр)
Время предзагрузки промежутка : 504 мс.
Библиотека кодирования : LAME3.99r
Настройки программы : -m s -V 4 -q 2 -lowpass 18.6 -b 192
Скриншоты
Download
Для скачивания .torrent файлов необходима регистрация
Сайт не распространяет и не хранит электронные версии произведений, а лишь предоставляет доступ к создаваемому пользователями каталогу ссылок на торрент-файлы, которые содержат только списки хеш-сумм
[Профиль]  [ЛС] 

Wlad_login

Top Loader 01* 100GB

Стаж: 12 лет 10 месяцев

Сообщений: 3017

Wlad_login · 12-Май-15 21:54 (спустя 1 год 6 месяцев)

[Цитировать] 

Произведения сатирика - художественные произведения. Именно так их и следует трактовать.
[Профиль]  [ЛС] 
 
Ответить
Loading...
Error