Защита / Suraksha (Равикант Нагаич / Ravikant Nagaich) [1979, Индия, Мелодрама, DVDRip] MVO

Страницы:  1

Ответить
Автор
Сообщение

soso4eg

Releaser

Стаж: 11 лет 7 месяцев

Сообщений: 2275

soso4eg · 20-Окт-13 18:37 (5 лет 9 месяцев назад, ред. 20-Окт-13 18:39)

Защита / Suraksha

Страна: Индия
Жанр: Мелодрама
Год выпуска: 1979
Продолжительность: 02:13:28
Язык: Хинди
Перевод: Профессиональный (многоголосый, закадровый) - Формат АВ
Субтитры: Нет
Режиссер: Равикант Нагаич / Ravikant Nagaich
В ролях: Митхун Чакраборти, Ранджита Каур, Джагдип, Дживан, Ифтекхар, Аруна Ирани, Према Нараян, Тедж Сапру, К. Баладжи, Мала Джагги, Суреш Оберой
Описание: В ходе расследования таинственного исчезновения своего коллеги Гопи сталкивается с крупной, хорошо организованной бандой. Главарь этих преступников - не просто человек, разбогатевший на контрабанде алмазов, но еще и безумный ученый, одержимый идеей с помощью своих технических разработок стать властелином мира...
Доп. информация: После относительного успеха первого фильма "Королевская охота" (1976г.), это был первый суперхит Митхуна Чакраборти. Известный продюсер и режиссёр Баббар Субхаш, подбирая актеров для индийского джеймсбондовского сериала, остановил свой выбор на Митхуне. Красивый и прекрасно сложенный молодой человек идеально подходил для роли бесшабашного крутого суперагента "Gun Master G-9", к тому же пригодилась и хорошая физическая подготовка.

| Кинопоиск

Качество видео: DVDRip
Исходник: DVD5 R1
Формат видео: AVI
Видео: XVID, 576x432, 23,976 fps, 1427 Kbps
Аудио: MP3, 48 kHz, 2.0 stereo, 128 Kbps

Риппер, синхронизация звука: soso4eg
Спасибо veronika83 за DVD5 без перевода =)
Спасибо Алёне за исходную звук. дорожку =)




Скриншоты

MI
Общее
Полное имя : C:\INDIYA\[Релизы]\Zashita.1979.DVDRip.XviD-soso4eg.avi
Формат : AVI
Формат/Информация : Audio Video Interleave
Размер файла : 1,46 Гбайт
Продолжительность : 2 ч. 13 м.
Общий поток : 1564 Кбит/сек
Название фильма : Zashita.1979.DVDRip.XviD-soso4eg
Режиссёр : soso4eg
Программа кодирования : VirtualDubMod 1.5.10.2 (build 2540/release)
Правообладатель : rutracker.org
Видео
Идентификатор : 0
Формат : MPEG-4 Visual
Профиль формата : Advanced [email protected]
Параметр BVOP формата : 2
Параметр QPel формата : Нет
Параметр GMC формата : Без точки перехода
Параметр матрицы формата : Default (H.263)
Идентификатор кодека : XVID
Идентификатор кодека/Подсказка : XviD
Продолжительность : 2 ч. 13 м.
Битрейт : 1427 Кбит/сек
Ширина : 576 пикселей
Высота : 432 пикселя
Соотношение сторон : 4:3
Частота кадров : 23,976 кадра/сек
Цветовое пространство : YUV
Субдискретизация насыщенности : 4:2:0
Битовая глубина : 8 бит
Тип развёртки : Прогрессивная
Метод сжатия : С потерями
Бит/(Пиксели*Кадры) : 0.239
Размер потока : 1,33 Гбайт (91%)
Библиотека кодирования : XviD 1.2.1 (UTC 2008-12-04)
Аудио
Идентификатор : 1
Формат : MPEG Audio
Версия формата : Version 1
Профиль формата : Layer 3
Режим : Joint stereo
Идентификатор кодека : 55
Идентификатор кодека/Подсказка : MP3
Продолжительность : 2 ч. 13 м.
Вид битрейта : Постоянный
Битрейт : 128 Кбит/сек
Каналы : 2 канала
Частота : 48,0 КГц
Метод сжатия : С потерями
Размер потока : 122 Мбайт (8%)
Выравнивание : Соединение по промежуткам
Продолжительность промежутка : 42 мс. (1,00 видеокадр)
Время предзагрузки промежутка : 504 мс.


Download
Для скачивания .torrent файлов необходима регистрация
Сайт не распространяет и не хранит электронные версии произведений, а лишь предоставляет доступ к создаваемому пользователями каталогу ссылок на торрент-файлы, которые содержат только списки хеш-сумм
[Профиль]  [ЛС] 
 
Ответить
Loading...
Error