Жила-была ведьма / Ek Thi Daayan (Каннан Айер / Kannan Ayer) [2013, Индия, Ужасы, мелодрама, триллер, DVDRip] MVO + Original + Sub Rus

Страницы:  1

Ответить
Автор
Сообщение

mallika_ICG

Стаж: 8 лет 4 месяца

Сообщений: 304

mallika_ICG · 30-Июн-13 09:47 (6 лет назад)

Жила-была ведьма / Ek Thi Daayan Страна: Индия
Жанр: Ужасы, мелодрама, триллер
Год выпуска: 2013
Продолжительность: 02:05:41
Перевод: Любительский (многоголосый закадровый) Александр Нелюбин, Ирина Грачева, Марина Комчарукова, Анастасия Снегирева
Субтитры: русские
Оригинальная аудиодорожка: Хинди
Режиссер: Каннан Айер / Kannan Ayer
В ролях: Эмран Хашми, Калки Коечлин, Паван Малхотра, Хума Куерши, Конкона Сен Шарма, Ролд Смитс
Описание: Бобо является ведущим магом Индии. Но даже его подруге Тамаре неизвестно, что жизнь Бобо разваливается на части. Его постоянные галлюцинации не оставляют ему выбора, кроме как искать психиатрической помощи. После регрессии гипноза, в памяти Бобо всплывают страшные истории из его детства с участием зловещей демонической силы, которая не только разрушила его семью, но и обещала вернуться, чтобы преследовать Бобо. Он предпочитает игнорировать это и двигаться дальше по жизни. Но тут в его карьеру и личную жизнь на полном газу врезается неотразимая Лиза Датт. Бобо убежден, что она ведьма. Но так ли это на самом деле? Или он просто сходит с ума?


Качество видео: DVDRip
Формат видео: AVI
Исходник:DVD5
Видео: XviD, 720х304 (2.35:1), 24 fps, ~1180 kbps, ~0.2 bit/pixel
Аудио: AC3, 48 kHz, 6 ch, 448 kbps, русский
Аудио 2: AС3 48 Hz, 6 ch, 448 Kbps, хинди
Формат субтитров: softsub (SRT)
Доп. информация о субтитрах: внешние, полные и на песни

Перевод на русский язык: Маргоша, перевод песен Анджелина Бондарчук
Релиз группы: & , подготовлен по заказу
Запрещена продажа в интернет-магазинах. Распространение возможно только на халяву!
Медиа-инфо
E:\Èíäèéñêèå ôèëüìû\Ek.Thi.Daayan.2013.DVDRip.Rus.Eng.ICG.IMG.GF\Ek.Thi.Daayan.2013.DVDRip.Rus.Eng.ICG.IMG.GF.avi
General
Complete name : E:\Èíäèéñêèå ôèëüìû\Ek.Thi.Daayan.2013.DVDRip.Rus.Eng.ICG.IMG.GF\Ek.Thi.Daayan.2013.DVDRip.Rus.Eng.ICG.IMG.GF.avi
Format : AVI
Format/Info : Audio Video Interleave
File size : 1.84 GiB
Duration : 2h 5mn
Overall bit rate : 2 090 Kbps
Movie name : Ek Thi Daayan - DVDRip - XviD - AC3 [DDR]
Writing application : VirtualDubModRus 1.5.10.2 (build 2542/release)
Writing library : VirtualDubMod build 2542/release
Video #0
ID : 0
Format : MPEG-4 Visual
Format profile : Advanced [email protected]
Format settings, BVOP : 3
Format settings, QPel : No
Format settings, GMC : No warppoints
Format settings, Matrix : Default (MPEG)
Codec ID : XVID
Codec ID/Hint : XviD
Duration : 2h 5mn
Bit rate : 1 180 Kbps
Width : 720 pixels
Height : 304 pixels
Display aspect ratio : 2.35:1
Frame rate : 24.975 fps
Color space : YUV
Chroma subsampling : 4:2:0
Bit depth : 8 bits
Scan type : Progressive
Compression mode : Lossy
Bits/(Pixel*Frame) : 0.216
Stream size : 1.04 GiB (56%)
Writing library : XviD 1.2.1 (UTC 2008-12-04)
Audio #1
ID : 1
Format : AC-3
Format/Info : Audio Coding 3
Mode extension : CM (complete main)
Format settings, Endianness : Big
Codec ID : 2000
Duration : 2h 5mn
Bit rate mode : Constant
Bit rate : 448 Kbps
Channel(s) : 6 channels
Channel positions : Front: L C R, Side: L R, LFE
Sampling rate : 48.0 KHz
Bit depth : 16 bits
Compression mode : Lossy
Stream size : 403 MiB (21%)
Alignment : Split accross interleaves
Interleave, duration : 40 ms (1.00 video frame)
Interleave, preload duration : 500 ms
Audio #2
ID : 2
Format : AC-3
Format/Info : Audio Coding 3
Mode extension : CM (complete main)
Format settings, Endianness : Big
Codec ID : 2000
Duration : 2h 5mn
Bit rate mode : Constant
Bit rate : 448 Kbps
Channel(s) : 6 channels
Channel positions : Front: L C R, Side: L R, LFE
Sampling rate : 48.0 KHz
Bit depth : 16 bits
Compression mode : Lossy
Stream size : 403 MiB (21%)
Alignment : Split accross interleaves
Interleave, duration : 40 ms (1.00 video frame)
Interleave, preload duration : 500 ms
Скриншот c названием фильма
Скриншоты
P.S. При копировании релиза на другие ресурсы сохраняйте оформление до буковки!
И просто огромная просьба - не выкидывайте из раздач субтитры и дорожки!
В раздаче фильма убедительная просьба обсуждать сам фильм.
Убедительная просьба отказаться от оскорбления участников группы, в завуалированной форме в том числе.
Download
Для скачивания .torrent файлов необходима регистрация
Сайт не распространяет и не хранит электронные версии произведений, а лишь предоставляет доступ к создаваемому пользователями каталогу ссылок на торрент-файлы, которые содержат только списки хеш-сумм
[Профиль]  [ЛС] 

Lenape

VIP (Заслуженный)

Стаж: 9 лет 11 месяцев

Сообщений: 4523

Lenape · 30-Июн-13 11:09 (спустя 1 час 21 мин.)

mallika_ICG писал(а):
Format settings, BVOP : 3
  1. Критерии присвоения статусов # сомнительно ⇒
[Профиль]  [ЛС] 

eli_0809

Стаж: 7 лет 4 месяца

Сообщений: 176

eli_0809 · 30-Июн-13 11:30 (спустя 20 мин.)

Малика спасибо вашей команде!
[Профиль]  [ЛС] 

Aheelys

Стаж: 9 лет 11 месяцев

Сообщений: 7


Aheelys · 07-Сен-13 00:13 (спустя 2 месяца 6 дней)

спасибо! мне понравился... особенно песня)
[Профиль]  [ЛС] 

kalllissto

Стаж: 10 лет 6 месяцев

Сообщений: 1024

kalllissto · 07-Сен-13 17:42 (спустя 17 часов)

Aheelys писал(а):
60772971спасибо! мне понравился... особенно песня)
Согласна. Песня высший класс!
[Профиль]  [ЛС] 

Asyr777

Стаж: 6 лет 4 месяца

Сообщений: 6

Asyr777 · 08-Сен-13 20:48 (спустя 1 день 3 часа)

Песня там удачная. Взял в сборник
[Профиль]  [ЛС] 
 
Ответить
Loading...
Error