Несовместимые с плеерами раздачи (тема для жалоб).

Страницы :   Пред.  1, 2, 3  След.

Ответить
Автор
Сообщение

Buka63

Moderator

Стаж: 7 лет 1 месяц

Сообщений: 9160

Buka63 · 22-Фев-13 22:02 (5 лет 3 месяца назад)

[Цитировать] 

Killer Bee
Ну по правилам в раздачах HWP, если есть русская дорожка, то она должна стоять по умолчанию.
[Профиль]  [ЛС] 

Killer Bee

Стаж: 7 лет 3 месяца

Сообщений: 243

Killer Bee · 22-Фев-13 22:07 (спустя 4 мин.)

[Цитировать] 

Buka63
Вы правы, так и есть.
[Профиль]  [ЛС] 

charman

Стаж: 7 лет 7 месяцев

Сообщений: 505

charman · 23-Фев-13 10:27 (спустя 12 часов)

[Цитировать] 

Killer Bee, там не все серии с такими параметрами, большенство по правилам, где-то я уже писал какие серии с касяком там их штук 20 если есть необходимость могу сделать список.
[Профиль]  [ЛС] 

Killer Bee

Стаж: 7 лет 3 месяца

Сообщений: 243

Killer Bee · 27-Фев-13 19:47 (спустя 4 дня)

[Цитировать] 

charman
Модераторы проигнорировали ссылку предоставленною мною, а для меня делать этот список нет необходимости.
[Профиль]  [ЛС] 

charman

Стаж: 7 лет 7 месяцев

Сообщений: 505

charman · 28-Фев-13 09:31 (спустя 13 часов)

[Цитировать] 

Killer Bee, просто вы могли бы взять нормальные серии с моей, а недостоющие откодить сами как пожелаете.
Killer Bee писал(а):
58108434Модераторы проигнорировали...
Тут наверное на нарутовский подраздел не принимают, не первый раз замечаю.
[Профиль]  [ЛС] 

goodwing

Стаж: 9 лет 11 месяцев

Сообщений: 664


goodwing · 19-Мар-13 10:45 (спустя 19 дней)

[Цитировать] 

Без сабов и формат матроска:
http://rutracker.org/forum/viewtopic.php?t=1876359
[Профиль]  [ЛС] 

TolstiyMob

VIP (Заслуженный)

Стаж: 9 лет 8 месяцев

Сообщений: 2973

TolstiyMob · 19-Мар-13 10:50 (спустя 4 мин.)

[Цитировать] 

goodwing писал(а):
Без сабов и формат матроска:
http://rutracker.org/forum/viewtopic.php?t=1876359
Сабы есть:
список файлов писал(а):
Uchuu Senshi Baldios Movie.srt
А формат AVI:
MediaInfo писал(а):
Format : AVI
[Профиль]  [ЛС] 

8gabriel8

Стаж: 8 лет 1 месяц

Сообщений: 197


8gabriel8 · 17-Апр-13 04:49 (спустя 28 дней)

[Цитировать] 

kost12000 писал(а):
56863958http://rutracker.org/forum/viewtopic.php?t=4029215 - ДВД-плеер отказался читать чёрный экран.
медиа инфо
скрытый текст
ID : 0
Format : MPEG-4 Visual
Format profile : Advanced [email protected]
Format settings, BVOP : 2
Format settings, QPel : No
Format settings, GMC : No warppoints
Format settings, Matrix : Default (H.263)
Codec ID : XVID
Codec ID/Hint : XviD
Duration : 23mn 59s
Bit rate : 1 778 Kbps
Width : 704 pixels
Height : 396 pixels
Display aspect ratio : 16:9
Frame rate : 23.976 fps
Color space : YUV
Chroma subsampling : 4:2:0
Bit depth : 8 bits
Scan type : Progressive
Compression mode : Lossy
Bits/(Pixel*Frame) : 0.266
Stream size : 305 MiB (84%)
Writing library : XviD 1.2.1 (UTC 2008-12-04)
Audio #1
ID : 1
Format : MPEG Audio
Format version : Version 1
Format profile : Layer 3
Mode : Joint stereo
Mode extension : MS Stereo
Codec ID : 55
Codec ID/Hint : MP3
Duration : 23mn 59s
Bit rate mode : Constant
Bit rate : 160 Kbps
Channel(s) : 2 channels
Sampling rate : 48.0 KHz
Compression mode : Lossy
Stream size : 27.5 MiB (8%)
Alignment : Aligned on interleaves
Interleave, duration : 42 ms (1.00 video frame)
Interleave, preload duration : 504 ms
Title : Eladiel & Zendos
Audio #2
ID : 2
Format : MPEG Audio
Format version : Version 1
Format profile : Layer 3
Mode : Joint stereo
Mode extension : MS Stereo
Codec ID : 55
Codec ID/Hint : MP3
Duration : 23mn 59s
Bit rate mode : Constant
Bit rate : 160 Kbps
Channel(s) : 2 channels
Sampling rate : 48.0 KHz
Compression mode : Lossy
Stream size : 27.5 MiB (8%)
Alignment : Aligned on interleaves
Interleave, duration : 42 ms (1.00 video frame)
Interleave, preload duration : 504 ms
Writing library : LAME3.98.4
TolstiyMob писал(а):
56873478Раздача по тех. данным полностью совместимая.
Насколько мне известно, не все плееры пережевывают
Format settings, BVOP                    : 2
только 1.
[Профиль]  [ЛС] 

kost12000

Стаж: 8 лет

Сообщений: 8099

kost12000 · 18-Апр-13 11:50 (спустя 1 день 7 часов)

[Цитировать] 

8gabriel8
вы ошибаетесь, я море аниме пересмотрел BVOP : 2 -причина не в этом
Насколько мне известно, не все плееры пережевывают-с этим полностью согласен
[Профиль]  [ЛС] 

Ich Lauf

VIP (Заслуженный)

Стаж: 9 лет 7 месяцев

Сообщений: 11563

Ich Lauf · 18-Апр-13 14:40 (спустя 2 часа 50 мин.)

[Цитировать] 

8gabriel8 писал(а):
58895406Насколько мне известно, не все плееры пережевывают
Всех не удовлетворишь, в правилах усредненные данные по тех.параметрам.
[Профиль]  [ЛС] 

slipknot515ps

Top Seed 01* 40r

Стаж: 9 лет 4 месяца

Сообщений: 518

slipknot515ps · 21-Апр-13 10:57 (спустя 2 дня 20 часов)

[Цитировать] 

верните обратно в плеерный раздел, недочеты устранены
http://rutracker.org/forum/viewtopic.php?t=4209617
[Профиль]  [ЛС] 

ANtreides

Стаж: 9 лет 5 месяцев

Сообщений: 186

ANtreides · 14-Май-13 15:50 (спустя 23 дня)

[Цитировать] 

http://rutracker.org/forum/viewtopic.php?t=4433151
mastermolot писал(а):
59192193Видео: h264 [8bit], 1280x544, 3000 kbps, 24 fps
Правила "Аниме (плеерный подраздел)". писал(а):
Подробнее о HD-HWP
[...]
Частота кадров: 23.976, 29.970 или 59.94 fps CFR;
Если верить правилам, это не плеерная раздача. А если посмотреть на остальные рипы (блурея пока не имею), то складывается впечатление того, что на диске настоящее 24p и недоработка как раз в правилах — нужно как-то уточнить их на случай подобных ситуаций. Или для плеерных рипов в таких случаях нужно выбрасывать при энкоде каждый 1001 кадр?
[Профиль]  [ЛС] 

TolstiyMob

VIP (Заслуженный)

Стаж: 9 лет 8 месяцев

Сообщений: 2973

TolstiyMob · 14-Май-13 17:04 (спустя 1 час 13 мин.)

[Цитировать] 

ANtreides писал(а):
А если посмотреть на остальные рипы (блурея пока не имею), то складывается впечатление того, что на диске настоящее 24p и недоработка как раз в правилах — нужно как-то уточнить их на случай подобных ситуаций. Или для плеерных рипов в таких случаях нужно выбрасывать при энкоде каждый 1001 кадр?
Да, недоработка в правилах, внесем изменения. HD-плееры должны брать 24fps без проблем, как и 50i.
[Профиль]  [ЛС] 

dron-6z

Стаж: 10 лет 11 месяцев

Сообщений: 8005

dron-6z · 30-Авг-13 15:10 (спустя 3 месяца 15 дней)

[Цитировать] 

http://rutracker.org/forum/viewtopic.php?t=4436091 - требуется тестирование на нескольких медиа-тв на предмет совместимости.
Претензия и выяснение - http://rutracker.org/forum/viewtopic.php?p=60665184#60665184
[Профиль]  [ЛС] 

TolstiyMob

VIP (Заслуженный)

Стаж: 9 лет 8 месяцев

Сообщений: 2973

TolstiyMob · 30-Авг-13 19:50 (спустя 4 часа)

[Цитировать] 

dron-6z писал(а):
http://rutracker.org/forum/viewtopic.php?t=4436091 - требуется тестирование на нескольких медиа-тв на предмет совместимости.
Претензия и выяснение - http://rutracker.org/forum/viewtopic.php?p=60665184#60665184
Все телевизоры, поддерживающие спецификацию L4.1 должны воспроизводить 12 ref и 1280х544. Так задано стандартом. Если телевизор поддерживает только 3.1, то, конечно, он и 9 ref'ов не возьмет в 720p видео. Если написано, что телевизор поддерживает формат 4.1, а 12 ref не берет, это лишь значит, что компания-изготовитель выпустила телевизор, не поддерживающий полностью спецификацию, которую он обязан поддерживать. Все равно, что блюрей-плеер, не читающий BD50 болванки или HWP-плеер, умеющий только DivX.
[Профиль]  [ЛС] 

Buka63

Moderator

Стаж: 7 лет 1 месяц

Сообщений: 9160

Buka63 · 30-Авг-13 20:17 (спустя 26 мин.)

[Цитировать] 

TolstiyMob
А нестандартная частота кадров (она не прописана в правилах подраздела) влиять не может?
[Профиль]  [ЛС] 

TolstiyMob

VIP (Заслуженный)

Стаж: 9 лет 8 месяцев

Сообщений: 2973

TolstiyMob · 30-Авг-13 20:27 (спустя 10 мин.)

[Цитировать] 

Buka63 писал(а):
А нестандартная частота кадров (она не прописана в правилах подраздела) влиять не может?
Частота кадров стандартная. Дело скорее всего именно в рефреймах.
[Профиль]  [ЛС] 

ellada1976

Стаж: 5 лет 2 месяца

Сообщений: 124

ellada1976 · 13-Сен-13 20:58 (спустя 14 дней)

[Цитировать] 

Прекрасная озвучка, все смотрибельно, но только на компьютере.
На плеере DVD не проигрывается
А хотелось бы раздачу, чтобы такое же качество с прикрученным дубляжом и проигрывалось на плеере.
[Профиль]  [ЛС] 

Buka63

Moderator

Стаж: 7 лет 1 месяц

Сообщений: 9160

Buka63 · 13-Сен-13 21:07 (спустя 9 мин.)

[Цитировать] 

ellada1976 писал(а):
А хотелось бы раздачу, чтобы такое же качество с прикрученным дубляжом и проигрывалось на плеере.
Скоро будет. Как только озвучку дотаймлю.
[Профиль]  [ЛС] 

sanmal

Стаж: 9 лет 4 месяца

Сообщений: 491

sanmal · 06-Ноя-13 15:19 (спустя 1 месяц 22 дня)

[Цитировать] 

http://rutracker.org/forum/viewtopic.php?t=4422617
наверно мне уже никогда не понять на кой черт пихать 480p в матреху
[Профиль]  [ЛС] 

Buka63

Moderator

Стаж: 7 лет 1 месяц

Сообщений: 9160

Buka63 · 06-Ноя-13 15:31 (спустя 12 мин.)

[Цитировать] 

sanmal
Где? Там же 720.
[Профиль]  [ЛС] 

Ich Lauf

VIP (Заслуженный)

Стаж: 9 лет 7 месяцев

Сообщений: 11563

Ich Lauf · 06-Ноя-13 16:11 (спустя 39 мин.)

[Цитировать] 

sanmal писал(а):
61600683наверно мне уже никогда не понять на кой черт пихать 480p в матреху
Не понимаю в чем проблема, конкретнее.
[Профиль]  [ЛС] 

sanmal

Стаж: 9 лет 4 месяца

Сообщений: 491

sanmal · 06-Ноя-13 21:58 (спустя 5 часов, ред. 06-Ноя-13 21:58)

[Цитировать] 

Buka63 писал(а):
61600824sanmal
Где? Там же 720.
Да, точно, не заметил)
Ich Lauf писал(а):
61601265
sanmal писал(а):
61600683наверно мне уже никогда не понять на кой черт пихать 480p в матреху
Не понимаю в чем проблема, конкретнее.
ну так она же в Список форумов rutracker.org» Кино, Видео и ТВ» Аниме» Аниме (плеерный подраздел)
Прочитал сейчас правила, это типо считается HD-HWP? Просто который день ковыряюсь тут в поисках HWP, скачал уже более 20 сериалов и только сегодня впервые заметил 720p mkv в плеерном. Ну ок, не знал что тут еще и HD-HWP есть, извиняюсь.
[Профиль]  [ЛС] 

Ich Lauf

VIP (Заслуженный)

Стаж: 9 лет 7 месяцев

Сообщений: 11563

Ich Lauf · 06-Ноя-13 22:11 (спустя 12 мин.)

[Цитировать] 

sanmal писал(а):
61606664Ну ок, не знал что тут еще и HD-HWP есть,
Ну наш раздел в этом плане отстал от других, вот наверстываем. Такое видео на ура идет на телевизорах с флешки, к примеру.
[Профиль]  [ЛС] 

dron-6z

Стаж: 10 лет 11 месяцев

Сообщений: 8005

dron-6z · 06-Ноя-13 22:38 (спустя 26 мин., ред. 07-Ноя-13 13:34)

[Цитировать] 

sanmal писал(а):
61606664ну так она же в Список форумов rutracker.org» Кино, Видео и ТВ» Аниме» Аниме (плеерный подраздел)
Плееры, они разные бывают.
AVI-шки - для Mpeg4 DVD-плееров и сходной, по возможностям техники.
MKV-шки - для BD-плееров, SAT ресиверов, IP-tv приставок, медиаплееров, смартфонов и телевизоров с поддержкой воспроизведения AVC с внешних носителей. Ну и для тех, у кого 10 бит цвет компы не тянут.
Просто следует при поиске добавлять HWP к искомому и будут AVI-шки только.
Для 720p, соответственно, добавлять HD.
Ну и просто обращать внимание на эти теги в конце названия темы.
sanmal писал(а):
61606664только сегодня впервые заметил 720p mkv в плеерном.
Мало их ещё, вот и...
Кому нужно - делать не хотят, а кто может - тому не нужно.
[Профиль]  [ЛС] 

sanmal

Стаж: 9 лет 4 месяца

Сообщений: 491

sanmal · 07-Ноя-13 01:15 (спустя 2 часа 36 мин.)

[Цитировать] 

Цитата:
Просто следует при поиске добавлять HWP к искомому и будут AVI-шки только.
Для 720p, соответственно, добавлять HD.
Если в поиске добавлять HWP, то больше половины мимо кассы пройдет, вот например
http://rutracker.org/forum/viewtopic.php?t=82575
http://rutracker.org/forum/viewtopic.php?t=3230043
http://rutracker.org/forum/viewtopic.php?t=2840097
или Эрл, который раскидан тут на 10 раздач и не у одной из них нет в заголовке этого тэга.
А так пока только Gun x Sword и Black Lagoon - Roberta's Blood Trail, с Hellsing Ultimate OVA уж ладно, всеравно путной озвучки нет.
Цитата:
Мало их ещё, вот и...
Наверно не столько мало, сколько неподписанных. Да и поздновато для "еще" итак уже все давно сидят на 1080, а скоро побегут за 4к
[Профиль]  [ЛС] 

dron-6z

Стаж: 10 лет 11 месяцев

Сообщений: 8005

dron-6z · 07-Ноя-13 01:35 (спустя 20 мин.)

[Цитировать] 

sanmal писал(а):
61609023Если в поиске добавлять HWP, то больше половины мимо кассы пройдет
Речь шла о поиске по плеерному. Видео с pbs, gmc, qpel - даже если и авишное, плеерным не считается.
sanmal писал(а):
61609023Наверно не столько мало, сколько неподписанных.
Хд-плеерных в плеерном - реально мало. Потенциально хд-плеерных, разумеется, сильно больше.
[Профиль]  [ЛС] 

sanmal

Стаж: 9 лет 4 месяца

Сообщений: 491

sanmal · 07-Ноя-13 02:10 (спустя 34 мин.)

[Цитировать] 

Цитата:
Речь шла о поиске по плеерному. Видео с pbs, gmc, qpel - даже если и авишное, плеерным не считается.
Так для любого пользователя ищущего HWP главное чтоб оно воспроизводилось на его плеере, а какой там раздел и pbs, gmc, qpel уже дело десятое. Вот я искал для себя и нашел, без всяких тегов HWP, а искал бы по HWP - половина мимо кассы прошла. Плеер, если что такой, а не какой то там всеядный/навороченный.
[Профиль]  [ЛС] 

Ich Lauf

VIP (Заслуженный)

Стаж: 9 лет 7 месяцев

Сообщений: 11563

Ich Lauf · 07-Ноя-13 03:18 (спустя 1 час 8 мин.)

[Цитировать] 

sanmal писал(а):
61609023Если в поиске добавлять HWP, то больше половины мимо кассы пройдет, вот например
Первая ссылка - не соответствует тех.стандартам. Вторая - не наш раздел, другая аудитория и правила. Третье - не вижу МИ отчета, чтобы судить, предоставьте вы.
sanmal писал(а):
61609403Так для любого пользователя ищущего HWP главное чтоб оно воспроизводилось на его плеере,
Правила написаны под чтобы у всех играло наверняка, если у меньшинства не играет что-то или играет, что у большинства не играет, - то это всем известные издержки и тут уже ничего не поделать.
sanmal писал(а):
61609023Наверно не столько мало, сколько неподписанных.
Если не подписана, значит либо не соответствует нормам, либо нет информации - модераторы в ручную и так много качали и качают для обновления информации и прочего, пользователи же имея на руках файлы редко делятся данными.
sanmal писал(а):
61609403искал для себя и нашел, без всяких тегов HWP, а искал бы по HWP - половина мимо кассы прошла.
Мы за вас честно рады, но не понимаю сути претензий или возмущения.
sanmal писал(а):
61609023или Эрл, который раскидан тут на 10 раздач и не у одной из них нет в заголовке этого тэга.
Эрл? Сериал про человечков и могучий список? Если да, то опять не к месту вопрос и претензия.
[Профиль]  [ЛС] 

sanmal

Стаж: 9 лет 4 месяца

Сообщений: 491

sanmal · 09-Ноя-13 06:55 (спустя 2 дня 3 часа, ред. 09-Ноя-13 06:55)

[Цитировать] 

Цитата:
Если да, то опять не к месту вопрос и претензия.
То не вопрос и претензия, а как вариант без маркировки, который, как оказалось подходит "не для всех".
Цитата:
но не понимаю сути претензий или возмущения
да и ненадо, на революционера не притендую
Цитата:
Третье - не вижу МИ отчета, чтобы судить, предоставьте вы.
тоже наверно не подходит под правила
скрытый текст
Код:
Общее
Полное имя                               : \Ergo Proxy\HDTVRip\01. Awakening (Pulse of Awakening).avi
Формат                                   : AVI
Формат/Информация                        : Audio Video Interleave
Размер файла                             : 191 Мбайт
Продолжительность                        : 25 м.
Общий поток                              : 1038 Кбит/сек
Программа кодирования                    : Lavf52.39.0
Видео
Идентификатор                            : 0
Формат                                   : xvid
Идентификатор кодека                     : xvid
Продолжительность                        : 25 м.
Битрейт                                  : 834 Кбит/сек
Ширина                                   : 720 пикселей
Высота                                   : 404 пикселя
Соотношение сторон                       : 16:9
Частота кадров                           : 23,976 кадра/сек
Бит/(Пиксели*Кадры)                      : 0.120
Размер потока                            : 153 Мбайт (80%)
Аудио
Идентификатор                            : 1
Формат                                   : MPEG Audio
Версия формата                           : Version 1
Профиль формата                          : Layer 3
Режим                                    : Joint stereo
Расширение режима                        : MS Stereo
Идентификатор кодека                     : 55
Идентификатор кодека/Подсказка           : MP3
Продолжительность                        : 25 м.
Вид битрейта                             : Постоянный
Битрейт                                  : 192 Кбит/сек
Каналы                                   : 2 канала
Частота                                  : 48,0 КГц
Метод сжатия                             : С потерями
Размер потока                            : 35,3 Мбайт (18%)
Выравнивание                             : Соединение по промежуткам
Продолжительность промежутка             : 24  мс. (0,58 видеокадр)
Библиотека кодирования                   : LAME3.98.2
Код:
Общее
Полное имя                               : \Ergo Proxy\HDTVRip\05. Tasogare (Recall).avi
Формат                                   : AVI
Формат/Информация                        : Audio Video Interleave
Размер файла                             : 246 Мбайт
Продолжительность                        : 25 м.
Общий поток                              : 1337 Кбит/сек
Программа кодирования                    : Lavf52.39.0
Видео
Идентификатор                            : 0
Формат                                   : xvid
Идентификатор кодека                     : xvid
Продолжительность                        : 25 м.
Битрейт                                  : 1133 Кбит/сек
Ширина                                   : 720 пикселей
Высота                                   : 404 пикселя
Соотношение сторон                       : 16:9
Частота кадров                           : 23,976 кадра/сек
Бит/(Пиксели*Кадры)                      : 0.162
Размер потока                            : 209 Мбайт (85%)
Аудио
Идентификатор                            : 1
Формат                                   : MPEG Audio
Версия формата                           : Version 1
Профиль формата                          : Layer 3
Режим                                    : Joint stereo
Расширение режима                        : MS Stereo
Идентификатор кодека                     : 55
Идентификатор кодека/Подсказка           : MP3
Продолжительность                        : 25 м.
Вид битрейта                             : Постоянный
Битрейт                                  : 192 Кбит/сек
Каналы                                   : 2 канала
Частота                                  : 48,0 КГц
Метод сжатия                             : С потерями
Размер потока                            : 35,3 Мбайт (14%)
Выравнивание                             : Соединение по промежуткам
Продолжительность промежутка             : 24  мс. (0,58 видеокадр)
Библиотека кодирования                   : LAME3.98.2
[Профиль]  [ЛС] 
 
Ответить
Loading...
Error