Лунный свет 2: Вселенная света / Lichtmond 2: Universe of Light 2D [2012, Music Video, Animaton, Relax, BDRip 720p]

Страницы:  1

Ответить
Автор
Сообщение

ultramultidesk

Стаж: 8 лет 4 месяца

Сообщений: 43

ultramultidesk · 12-Окт-12 02:43 (5 лет 10 месяцев назад, ред. 12-Окт-12 05:32)

Лунный свет 2: Вселенная света / Lichtmond 2: Universe of Light (2D Version)
Жанр: Music Video, Comp. animation, Relax
Продолжительность: 00:50:56
Год выпуска: 2012
Описание: Мировая премьера состоялась в Гамбургском Планетарии в сентябре 2012 года - уникальное 360° шоу всех времен и народов. "Выше, быстрее, шире и все в XXL" - путешествие в фэнтези, в лучах лунного света через волшебные звуки, еще более масштабно и профессионально чем в первом фильме. Погрузитесь в неординарную музыку и пусть ваши FullHD экраны превратятся на один час в двери сказочных миров, которые до селе Вам не приходилось видеть, но наверняка вы мечтали о них. Это удивительное музыкальное видео, с уникальным звуковым рядом, как по качеству так и по наполнению невиданной красоты видеорядом футуристических миров.
Выпущено: Germany, AL!VE
Режиссер: Giorgio & Martin Koppehele
Участники: Martin (synthesizer, bass, esraj) and Giorgio (synthesizer & electronics) Koppehele, Gabi (vocals, lyrics) and Suna (vocals, percussion, melodies, lyrics) Koppehele, Meera Fe (vocals, piano, esraj), Saskia Philipps (vocals), Thomas E. Killinger (narration of the poems, piano) feat. Alan Parsons & The SubClones, I Muvrini
Релиз:
Доп. информация: THANKS TO A FRIEND !
Amazon.de | HDLine | Screenshots | Spectrum AAC | Sample
Lichtmond.2-Universe.of.Light.2D.2012.1080p.BDRip.x264-DTS.AC3.FLAC
Треклист
01. Solar dust [Part 1]
02. Solar dust [Part 2]
03. Soul affinity
04. Distant dream
05. Universe of light
06. Magic forest
07. Precious life (feat. Alan Parsons & the SubClones)
08. Star suite
09. State of mind
10. Shadow play:
• Mystic eyes
• Moments of joy (feat. I Muvrini)
• Lunar dust
• Precious life (Single Mix) (feat. Alan Parsons & the SubClones)
Качество: BDRip (720p)
Контейнер: MKV
Видео кодек: H.264
Аудио кодек: AAC, AC3, DTS
Видео: 1280x720 at 23.976 fps, [email protected], crf, ~5418 Kbps avg
Аудио#1: English: 48 kHz, AAC, 2/0 (L,R), 16-bit, ~318 kbps avg
Аудио#2: English: 48 kHz, AC3, 2/0 (L,R), 16-bit, ~192 kbps avg
Аудио#3: German: 48 kHz, DTS, 3/2 (L,C,R,l,r) + LFE ch, 24-bit, ~1536 kbps avg
Аудио#4: German: 48 kHz, AC3, 3/2 (L,C,R,l,r) + LFE ch, 16-bit, ~448 kbps avg
МедиаИнфо
General
Unique ID : 250509801081320121689245514161635188264 (0xBC766EC729F77E2B812798A2ED5BDE28)
Complete name : Lichtmond.2-Universe.of.Light.2D.2012.720p.BluRay.x264-HDLine.mkv
Format : Matroska
Format version : Version 2
File size : 2.87 GiB
Duration : 50mn 56s
Overall bit rate : 8 058 Kbps
Movie name : Lichtmond.2-Universe.of.Light.2012.720p.BluRay.x264-AAC.AC3.DTS-HDLine
Encoded date : UTC 2012-10-11 18:29:23
Writing application : mkvmerge v5.8.0 ('No Sleep / Pillow') built on Sep 2 2012 15:37:04
Writing library : libebml v1.2.3 + libmatroska v1.3.0
Video
ID : 1
Format : AVC
Format/Info : Advanced Video Codec
Format profile : [email protected]
Format settings, CABAC : Yes
Format settings, ReFrames : 8 frames
Codec ID : V_MPEG4/ISO/AVC
Duration : 50mn 56s
Bit rate : 5 418 Kbps
Width : 1 280 pixels
Height : 720 pixels
Display aspect ratio : 16:9
Frame rate mode : Constant
Frame rate : 23.976 fps
Color space : YUV
Chroma subsampling : 4:2:0
Bit depth : 8 bits
Scan type : Progressive
Title : Lichtmond.2-Universe.of.Light.2D.2012.720p.BluRay.x264-HDLine
Writing library : x264 core 128 r2216 198a7ea
Encoding settings : cabac=1 / ref=8 / deblock=1:-3:-3 / analyse=0x3:0x113 / me=umh / subme=10 / psy=1 / psy_rd=1.00:0.00 / mixed_ref=1 / me_range=48 / chroma_me=1 / trellis=2 / 8x8dct=1 / cqm=0 / deadzone=21,11 / fast_pskip=1 / chroma_qp_offset=-2 / threads=18 / lookahead_threads=3 / sliced_threads=0 / nr=0 / decimate=1 / interlaced=0 / bluray_compat=0 / constrained_intra=0 / bframes=9 / b_pyramid=2 / b_adapt=2 / b_bias=0 / direct=1 / weightb=1 / open_gop=0 / weightp=2 / keyint=240 / keyint_min=23 / scenecut=40 / intra_refresh=0 / rc_lookahead=40 / rc=crf / mbtree=0 / crf=17.0 / qcomp=0.60 / qpmin=0 / qpmax=69 / qpstep=4 / vbv_maxrate=50000 / vbv_bufsize=62500 / crf_max=0.0 / nal_hrd=none / ip_ratio=1.40 / pb_ratio=1.30 / aq=1:0.80
Language : German
Default : Yes
Forced : No
Matrix coefficients : BT.709
Audio #1
ID : 2
Format : AAC
Format/Info : Advanced Audio Codec
Format profile : LC
Codec ID : A_AAC
Duration : 50mn 56s
Bit rate mode : Variable
Bit rate : 318 Kbps
Maximum bit rate : 364 Kbps
Channel(s) : 2 channels
Channel positions : Front: L R
Sampling rate : 48.0 KHz
Compression mode : Lossy
Delay relative to video : 20ms
Title : AAC-LC 2.0 48 KHz @ 318 kbps (16-bit)
Language : English
Default : Yes
Forced : No
Audio #2
ID : 3
Format : AC-3
Format/Info : Audio Coding 3
Mode extension : CM (complete main)
Format settings, Endianness : Big
Codec ID : A_AC3
Duration : 50mn 56s
Bit rate mode : Constant
Bit rate : 192 Kbps
Channel(s) : 2 channels
Channel positions : Front: L R
Sampling rate : 48.0 KHz
Bit depth : 16 bits
Compression mode : Lossy
Stream size : 70.0 MiB (2%)
Title : DD 2.0 48 KHz @ 192 kbps (16-bit)
Language : English
Default : No
Forced : No
Audio #3
ID : 4
Format : DTS
Format/Info : Digital Theater Systems
Codec ID : A_DTS
Duration : 50mn 56s
Bit rate mode : Constant
Bit rate : 1 510 Kbps
Channel(s) : 6 channels
Channel positions : Front: L C R, Side: L R, LFE
Sampling rate : 48.0 KHz
Bit depth : 24 bits
Compression mode : Lossy
Stream size : 550 MiB (19%)
Title : DTS 5.1 48 KHz @ 1536 kbps (24-bit)
Language : German
Default : No
Forced : No
Audio #4
ID : 5
Format : AC-3
Format/Info : Audio Coding 3
Mode extension : CM (complete main)
Format settings, Endianness : Big
Codec ID : A_AC3
Duration : 50mn 56s
Bit rate mode : Constant
Bit rate : 448 Kbps
Channel(s) : 6 channels
Channel positions : Front: L C R, Side: L R, LFE
Sampling rate : 48.0 KHz
Bit depth : 16 bits
Compression mode : Lossy
Stream size : 163 MiB (6%)
Title : DD 5.1 48 KHz @ 448 kbps (16-bit)
Language : German
Default : No
Forced : No
Menu
00:00:00.000 : en:00:00:00.000
00:02:20.140 : en:00:02:20.140
00:06:28.388 : en:00:06:28.388
00:11:34.694 : en:00:11:34.694
00:17:54.073 : en:00:17:54.073
00:23:56.435 : en:00:23:56.435
00:29:13.835 : en:00:29:13.835
00:35:16.114 : en:00:35:16.114
00:41:29.487 : en:00:41:29.487
00:47:44.361 : en:00:47:44.361
00:50:56.762 : en:00:50:56.762
Скриншоты
• что такое добрая кнопка •
Download
Для скачивания .torrent файлов необходима регистрация
Сайт не распространяет и не хранит электронные версии произведений, а лишь предоставляет доступ к создаваемому пользователями каталогу ссылок на торрент-файлы, которые содержат только списки хеш-сумм
[Профиль]  [ЛС] 

dispetcher

Стаж: 12 лет

Сообщений: 7


dispetcher · 30-Июл-13 02:14 (спустя 9 месяцев)

[Цитировать] 

Впервые пожалел,что нет телевизора 3D........ Шедевр!!!!!
[Профиль]  [ЛС] 

Kimyri

Стаж: 9 лет 9 месяцев

Сообщений: 4


Kimyri · 04-Окт-14 21:05 (спустя 1 год 2 месяца)

[Цитировать] 

dispetcher писал(а):
60288020Впервые пожалел,что нет телевизора 3D........ Шедевр!!!!!
та же фигня)))
[Профиль]  [ЛС] 

Mark-O-Polo

Стаж: 3 года 6 месяцев

Сообщений: 11


Mark-O-Polo · 04-Июл-15 17:44 (спустя 8 месяцев)

[Цитировать] 

от 3D глаза сломать можно!ради 50мин.оно вам надо?
[Профиль]  [ЛС] 

andrey islam

Стаж: 8 лет

Сообщений: 20

andrey islam · 29-Окт-16 02:15 (спустя 1 год 3 месяца)

[Цитировать] 

Mark-O-Polo писал(а):
68199599от 3D глаза сломать можно!ради 50мин.оно вам надо?
вот-вот,хоть и есть 3D хватает всего лишь на 15 мин.,потом глаза начинают болеть!
[Профиль]  [ЛС] 
 
Ответить
Loading...
Error