Gregorian & Eva Mali - World Without End [2012, New Age, WEBRip]

Страницы:  1

Ответить
Автор
Сообщение

КотDNC

Top Seed 01* 40r

Стаж: 8 лет 7 месяцев

Сообщений: 543

КотDNC · 13-Сен-12 16:00 (5 лет 11 месяцев назад, ред. 13-Сен-12 16:06)

Gregorian & Eva Mali - World Without End
Страна: Germany
Жанр: New Age
Продолжительность: 3м:27с
Год выпуска: 2012 г.
Описание: Новый клип группы Gregorian
Источник: скачано из сети
Качество: WEBRip
Контейнер: MP4
Аудио кодек: AAC
Видео: MP4, 740x416 (16:9), 761 kbps, 25 fps
Аудио: AAC, 46 kbps, 16 kHz, 1 ch
MI
General
Format : MPEG-4
Format profile : Base Media
Codec ID : isom
File size : 20.0 MiB
Duration : 3mn 27s
Overall bit rate mode : Variable
Overall bit rate : 809 Kbps
Encoded date : UTC 2012-09-04 23:00:00
Tagged date : UTC 2012-09-04 23:00:00
Writing application : Lavf53.18.0
Video
ID : 1
Format : AVC
Format/Info : Advanced Video Codec
Format profile : [email protected]
Format settings, CABAC : No
Format settings, ReFrames : 3 frames
Codec ID : avc1
Codec ID/Info : Advanced Video Coding
Duration : 3mn 27s
Bit rate : 761 Kbps
Width : 740 pixels
Height : 416 pixels
Display aspect ratio : 16:9
Frame rate mode : Constant
Frame rate : 25.000 fps
Color space : YUV
Chroma subsampling : 4:2:0
Bit depth : 8 bits
Scan type : Progressive
Bits/(Pixel*Frame) : 0.099
Stream size : 18.8 MiB (94%)
Writing library : x264 core 118
Encoding settings : cabac=0 / ref=3 / deblock=1:0:0 / analyse=0x1:0x111 / me=hex / subme=7 / psy=1 / psy_rd=1.00:0.00 / mixed_ref=1 / me_range=16 / chroma_me=1 / trellis=1 / 8x8dct=0 / cqm=0 / deadzone=21,11 / fast_pskip=1 / chroma_qp_offset=-2 / threads=6 / sliced_threads=0 / nr=0 / decimate=1 / interlaced=0 / bluray_compat=0 / constrained_intra=0 / bframes=0 / weightp=0 / keyint=250 / keyint_min=25 / scenecut=40 / intra_refresh=0 / rc_lookahead=40 / rc=crf / mbtree=1 / crf=23.0 / qcomp=0.60 / qpmin=0 / qpmax=69 / qpstep=4 / ip_ratio=1.40 / aq=1:1.00
Language : English
Encoded date : UTC 2012-09-04 23:00:00
Tagged date : UTC 2012-09-04 23:00:00
Audio
ID : 2
Format : AAC
Format/Info : Advanced Audio Codec
Format profile : LC
Codec ID : 40
Duration : 3mn 27s
Bit rate mode : Variable
Bit rate : 46.0 Kbps
Maximum bit rate : 48.0 Kbps
Channel(s) : 1 channel
Channel positions : Front: C
Sampling rate : 16.0 KHz
Compression mode : Lossy
Stream size : 1.13 MiB (6%)
Language : English
Encoded date : UTC 2012-09-04 23:00:00
Tagged date : UTC 2012-09-04 23:00:00
Скриншоты
Download
Для скачивания .torrent файлов необходима регистрация
Сайт не распространяет и не хранит электронные версии произведений, а лишь предоставляет доступ к создаваемому пользователями каталогу ссылок на торрент-файлы, которые содержат только списки хеш-сумм
[Профиль]  [ЛС] 

true and false

Стаж: 6 лет 2 месяца

Сообщений: 93


true and false · 20-Мар-13 00:28 (спустя 6 месяцев)

[Цитировать] 

Божественный голос у Eva Mali
[Профиль]  [ЛС] 

Metallatrix

Стаж: 7 лет 9 месяцев

Сообщений: 11


Metallatrix · 14-Ноя-13 10:07 (спустя 7 месяцев)

[Цитировать] 

true and false писал(а):
58448880Божественный голос у Eva Mali
Подтверждаю, слушал её в живую, она восхитительна. У Амалии голос слабее, но пластика тела лучше.
[Профиль]  [ЛС] 

sklk

Стаж: 6 лет 6 месяцев

Сообщений: 198


sklk · 27-Ноя-13 00:53 (спустя 12 дней)

[Цитировать] 

Да нет. Амалия - это как первая любовь. В первый раз услышал, и на всю жизнь. Ну не получилось у квинов с Джорджем Майклом. Ведь все слышали Фредди.
[Профиль]  [ЛС] 

true and false

Стаж: 6 лет 2 месяца

Сообщений: 93


true and false · 18-Окт-14 18:02 (спустя 10 месяцев)

[Цитировать] 

Eva Mali - псевдоним Зарины Малити. Зарина - осетинка, родилась 4 сентября 1984 года во Владикавказе. Оперная певица (сопрано). В 2011 году была признана одной из самых красивых девушек России американским журналом "Complex". Ее работа с Gregorian не осталась незамеченной, и сегодня Зарина записывает свой первый сольный альбом и выступает с концертами вместе с известнейшим немецким музыкантом, продюсером и композитором Кристофером фон Дайленом в его проекте Schiller. В частности, в последнем концертном альбоме Schiller (http://rutracker.org/forum/viewtopic.php?t=4847370) ее можно услышать в Ein Schоner Tag, но именно в знаменитой арии Solveig's Song, записанной на этом концерте в Берлине, ее голос достигает невиданных высот.
[Профиль]  [ЛС] 
 
Ответить
Loading...
Error