(Vocal Jazz, Schlager) [LP][24/96] Caterina Valente - Songs I’ve Sung On The Perry Como Show - 1963 (Original US Mono pressing), FLAC (tracks)

Страницы:  1

Ответить
Автор
Сообщение

d_aleks65

Top Seed 05* 640r

Стаж: 7 лет 4 месяца

Сообщений: 1676

d_aleks65 · 03-Авг-12 19:51 (6 лет 1 месяц назад, ред. 03-Авг-12 19:56)

Caterina Valente - Songs I’ve Sung On The Perry Como Show
Жанр: Vocal Jazz, Schlager
Год выпуска: 1963
Лейбл: London/Decca – LL 3355 (Original pressing)
Страна-производитель: USA
Аудио кодек: FLAC
Тип рипа: tracks
Формат записи: 32/96
Формат раздачи: 24/96 (Псевдо Stereo)
Продолжительность: 28:41
Треклист:
Side One:
A1 Make Someone Happy (02:19)
A2 You’re Following Me (02:40)
A3 More Than Likely (04:03)
A4 Couci Couca (02:05)
A5 Corcovado (02:36)
A6 Blue Moon (01:37)
Side Two:
B1 Falling In Love With Love (01:55)
B2 Stella By Starlight (02:45)
B3 To Be A Performer (01:26)
B4 Yours (02:36)
B5 Dimelo En Septiembre (01:49)
B6 Whispering (01:47)
Personnel:
- Caterina Valente - vocals
With orchestra
- Johnny Keating - accompaniment, arranged and conducted
Originally released in 1963 by London/Decca Records (US), LP - LL 3355 / PS 355
Катерина Валенте, певица, танцовщица и актриса, пела на двенадцати языках. Выступала и снималась по всему миру, но особую популярность завоевала в Германии, будучи основным исполнителем Schlager музыки. Там она записала хит "Весь Париж мечтает о любви" (Ganz Paris träumt von der Liebe) Коула Портера, проданный в 1954 году более 500000 копий. На протяжении многих лет она записывалась и выступала со многими мировыми звездами, в том числе с Луи Армстронгом, Четом Бейкером, Перри Комо, Эллой Фитцджеральд, Бенни Гудменом, Вуди Германом, Клаусом Огерманом, оркестром Томми Дорси, Сайем Оливером, Бадди Ричем и Эдмундом Росо. В 1959 году Катерина была номинирована на премию Грэмми .
Этот альбом был выпущен в Штатах, в период ее пребывания в Лас Вегасе, и сегодня известен еще как "Valente on TV"


Об исполнителе:
OFFICIAL WEB SITE: http://caterinavalente.com/
DISCOGRAPHY: http://denis.schwartz.pagesperso-orange.fr/caterinaan.htm

Ganz Paris träumt von der Liebe
(Весь Париж мечтает о любви)
----------------------Весь Париж мечтает о любви,
Ведь любовь там, будто дома у себя.
Весь Париж мечтает о этой сказке, чтобы сбылась она.
Весь Париж приветствует парочку, что станет парой.
Весь Париж поет опять,
Поет от счастья лишь.
Кто влюблен,
Кто влюблен в любовь,
Тот возвращается в Париж...



Источник оцифровки: Рип взят из сети. Автор: Alfredo Catalani
Код класса состояния винила: Ex
Ripping Info:
Posted by AlfredoCatalani @ July 20th, 2012
Caterina Valente – Songs I’ve Sung On The Perry Como Show {Original USA Mono Pressing} 24 bit/96 kHz
Vinyl condition: EX
Comes from: Property of AC
Ripping Infos
* RCM: Okki Nokki
* TT: Clearaudio Champion Level II
* System: Special Edition Denon DL 103
* Phono stage: Pro-Ject Phono Box II
* Pre Amp: Unison Research Unico Pre (Tube)
* NEW ! ADC/DAC: RME Fireface UC
* Finals: Opera Consonance 9.9 Mono (Tube)
* Speakers: Dali Helikon 400
* Connections: MIT Terminator, Audioquest Emerald, Audioquest Quartz
* Software: iZotope RX Advanced v2.02, Adobe Audition CS 5.5 -> Wave 32 bit/96 kHz
* Light de-Clicking with ClickRepair, significant clicks manually removing, no De-Noising
* DR-Analisys before converting to Flac
* Converting Wave 32bit/96kHz -> Flac 24bit/96kHz: Twisted Wave
* Artwork: Sony Alpha 350, Epson Perfection V750 Pro, Photoshop CS 5.5


Dynamic Range Analysis:
=======================================================================
———————————————————————————————-
Analyzed folder: /Volumes/PSK & MUSIC/HiResMusic/ FERTIG STELLEN/96k Caterina
Valente – Songs I’ve Sung On The Perry Como Show
———————————————————————————————-
DR Peak RMS Filename
———————————————————————————————-
DR12 -0.68 dB -14.99 dB A1 Make Someone Happy.wav
DR11 -1.27 dB -14.96 dB A2 You’re Following Me.wav
DR10 -2.18 dB -15.67 dB A3 More Than Likely.wav
DR11 -2.03 dB -16.30 dB A4 Couci Couca.wav
DR11 -3.79 dB -18.85 dB A5 Corcovado.wav
DR11 -1.07 dB -14.97 dB A6 Blue Moon.wav
DR10 -0.90 dB -13.97 dB B1 Falling In Love With Love.wav
DR10 -2.01 dB -16.31 dB B2 Stella By Starlight.wav
DR11 -1.08 dB -14.97 dB B3 To Be A Performer.wav
DR12 -1.42 dB -16.79 dB B4 Yours.wav
DR10 -1.78 dB -14.47 dB B5 Dimelo En Septiembre.wav
DR11 -0.98 dB -15.35 dB B6 Whispering.wav
———————————————————————————————-
Number of files: 12
Official DR value: DR11
=======================================================================
Спектр
АЧХ
Уровень записи
Мои раздачи:
Download
Для скачивания .torrent файлов необходима регистрация
Сайт не распространяет и не хранит электронные версии произведений, а лишь предоставляет доступ к создаваемому пользователями каталогу ссылок на торрент-файлы, которые содержат только списки хеш-сумм
[Профиль]  [ЛС] 
 
Ответить
Loading...
Error