Путешествие по Дону / The Traveling Around The Don (Руслан Кечеджиян) [2009, Документальный, HDTVRip 720p]

Страницы:  1

Ответить
Автор
Сообщение

pashogtv

Стаж: 8 лет 7 месяцев

Сообщений: 3


pashogtv · 08-Дек-10 19:41 (7 лет 8 месяцев назад)

Путешествие по Дону / The Traveling Around The Don
Год выпуска: 2009
Страна: Россия
Жанр: Документальный
Продолжительность: 19:58
Перевод: Не требуется
Русские субтитры: нет
Режиссер: Руслан Кечеджиян
Описание: В фильме показаны основные туристические места Донского края — Азов, Старочеркасск, Таганрог, Новочеркасск, Усть-Койсуг, Каменск-Шахтинский, Вешенская, Александровский лес, Ростов-на-Дону и другие.
Качество: HDTVRip
Формат: MP4
Видео кодек: avc
Аудио кодек: AAC
Видео: MPEG4 Video 1280x720 25.00fps 19.1 Mbps
Аудио: AAC 44100Hz stereo 256 Kbps
Скриншоты
скрытый текст
Format : MPEG-4
Format profile : Base Media / Version 2
Codec ID : mp42
File size : 2.76 GiB
Duration : 19mn 58s
Overall bit rate : 19.8 Mbps
Encoded date : UTC 2010-11-30 22:03:10
Tagged date : UTC 2010-11-30 22:05:53
Video
ID : 1
Format : MPEG-4 Visual
Format profile : [email protected]
Format settings, BVOP : Yes
Format settings, QPel : No
Format settings, GMC : No warppoints
Format settings, Matrix : Default (H.263)
Codec ID : 20
Duration : 19mn 58s
Bit rate mode : Variable
Bit rate : 19.1 Mbps
Width : 1 280 pixels
Height : 720 pixels
Display aspect ratio : 16:9
Frame rate mode : Constant
Frame rate : 25.000 fps
Color space : YUV
Bit depth : 8 bits
Scan type : Progressive
Bits/(Pixel*Frame) : 0.828
Stream size : 2.66 GiB (96%)
Language : English
Encoded date : UTC 2010-11-30 22:01:35
Tagged date : UTC 2010-11-30 22:05:53
Audio
ID : 2
Format : AAC
Format/Info : Advanced Audio Codec
Format version : Version 4
Format profile : LC
Format settings, SBR : No
Codec ID : 40
Duration : 19mn 58s
Bit rate mode : Constant
Bit rate : 256 Kbps
Channel(s) : 2 channels
Channel positions : Front: L R
Sampling rate : 44.1 KHz
Stream size : 35.8 MiB (1%)
Language : English
Encoded date : UTC 2010-11-30 22:01:35
Tagged date : UTC 2010-11-30 22:05:53
Download
Для скачивания .torrent файлов необходима регистрация
Сайт не распространяет и не хранит электронные версии произведений, а лишь предоставляет доступ к создаваемому пользователями каталогу ссылок на торрент-файлы, которые содержат только списки хеш-сумм
[Профиль]  [ЛС] 

ArticalЬ

Стаж: 8 лет 6 месяцев

Сообщений: 79


ArticalЬ · 09-Дек-10 14:53 (спустя 19 часов, ред. 09-Дек-10 14:54)

[Цитировать] 

http://rutracker.org/forum/viewtopic.php?t=2277258#53 Правила об оформлении техданных.
[Профиль]  [ЛС] 

servik72

Стаж: 12 лет 10 месяцев

Сообщений: 10

servik72 · 18-Дек-10 11:14 (спустя 8 дней)

[Цитировать] 

Хорошо, но размерчик ( Может кто конвертнет во что-нибудь поменьше?
[Профиль]  [ЛС] 

astrogor78

Стаж: 8 лет 6 месяцев

Сообщений: 2


astrogor78 · 28-Дек-10 22:41 (спустя 10 дней)

[Цитировать] 

ненапрасная загрузка....автору респект за стиль!!!
[Профиль]  [ЛС] 

hrustalets

Top User 06

Стаж: 11 лет 2 месяца

Сообщений: 295

hrustalets · 03-Янв-11 16:33 (спустя 5 дней)

[Цитировать] 

Спасибо, оличный позитивный ролик.
[Профиль]  [ЛС] 

VooDooTM

Стаж: 8 лет 2 месяца

Сообщений: 12


VooDooTM · 09-Май-11 15:05 (спустя 4 месяца 5 дней)

[Цитировать] 

великолепно! не ожидал... аж мурашки по телу.
[Профиль]  [ЛС] 

драйм

Стаж: 9 лет 3 месяца

Сообщений: 8


драйм · 12-Май-11 22:47 (спустя 3 дня)

[Цитировать] 

Страница фильма на Кинопоиске
http://www.kinopoisk.ru/level/1/film/497726/
[Профиль]  [ЛС] 
 
Ответить
Loading...
Error