The Black Crowes - E-Werk Cologne, November 17th, 1992 [2008, Rock, DTVRip]

Страницы:  1

Ответить
Автор
Сообщение

meloman67

Moderator

Стаж: 9 лет 8 месяцев

Сообщений: 5839

meloman67 · 12-Июл-09 08:21 (9 лет 5 месяцев назад, ред. 04-Июн-17 11:49)

The Black Crowes
E-Werk Cologne
Год выпуска: 2008
Жанр: Rock
Продолжительность: 01:41:43
Разбивка на главы по трекам: есть
Качество: DTVRip
Формат: DVD Video
Видео кодек: MPEG2
Аудио кодек: MP2
Видео: PAL 4:3 (720x576), 25 fps, 6879 kbps
Аудио: MP2, 48 kHz, stereo, 192 kbps


Chris Robinson - vocal & harmonica
Rich Robinson - guitar
Marc Ford - guitar
Johnny Colt - bass
Steve Gorman - drums
Eddie Harsch - keyboards



Обложка (6 MB)
Диск (2 MB)
Треклист
01. No Speak No Slave
02. My Morning Song
03. Sting Me
04. Hard To Handle
05. Thorn's Progress > 06. Thorn In My Pride
07. Seeing Things
08. Twice As Hard
09. Black Moon Jam > 10. Black Moon Creeping
11. Thick 'n' Thin > LAYER BREAK ON CHAPTER MARKER: 01:02:10:00
12. Stare It Cold > 13. Three Little Birds
14. Sometimes Salvation
15. Jealous Again
16. Remedy
Доп. информация
Date Of The Show: November 17, 1992
Broadcasting Date: April 28, 2008
Venue: E-Werk, Cologne (Germany)
Festival: Rocklife
TV - Station: WDR (Germany)
Lineage: Cable Digital > Topfield 5200 PVR-c > MPEG Streamclip > DVD Studio Pro > Disc Image > YOU
DVD Menu: Photoshop CS3 Design Premium - Apple's DVD Studio Pro & Apple's Motion
DVD Menu Sound: Has Animated Menus, Chapter & Stereo Sound
Audio Format: MP2 Stereo, 48 kHz, 192 kbps
Video Format: MPEG 2
Resolution: 720 x 576 / PAL / 50 Hz / Color
Frames Per Second: 25
Aspect Ratio: 4:3 - 1.33:1 - Full Frame
Artwork Created with: Adobe Creative Suite 3 Extended (Photoshop & InDesign)
Note: FULL DIGITAL RECORDING & NOT RE-ENCODED !!!
DVDinfo
Title: Black Crowes - E-Werk Cologne 1992 (DVD9)
Size: 5.15 Gb ( 5 399 802,00 KBytes ) - DVD-9
Enabled regions: 1, 2, 3, 4, 5, 6, 8
VTS_01 :
Play Length: 00:00:12
Video: PAL 16:9 (720x576) VBR, Auto Letterboxed
VTS_02 :
Play Length: 00:00:20
Video: PAL 16:9 (720x576) VBR, Auto Letterboxed
VTS_03 :
Play Length: 01:41:43
Video: PAL 4:3 (720x576) VBR
Audio:
Not specified, MPA, Delay = 0 mSec
* Menus Information *
VIDEO_TS Menu
Video:
PAL 16:9 (720x576) VBR
Auto Letterboxed
Deutsch Language Unit :
Title Menu
VTS_01 Menu
Video:
PAL 16:9 (720x576) VBR
Auto Letterboxed
Deutsch Language Unit :
Root Menu
VTS_02 Menu
Video:
PAL 4:3 (720x576) VBR
Deutsch Language Unit :
Root Menu
VTS_03 Menu
Video:
PAL 4:3 (720x576) VBR
Deutsch Language Unit :
Root Menu
MediaInfo
Общее
Полное имя : C:\Black Crowes - E-Werk Cologne 1992 (DVD9)\VIDEO_TS\VIDEO_TS.BUP
Формат : DVD Video
Профиль формата : Menu
Размер файла : 16,0 Кбайт
Режим общего битрейта : Переменный
Видео
Идентификатор : 224 (0xE0)
Формат : MPEG Video
Версия формата : Version 2
Вид битрейта : Переменный
Ширина : 720 пикселей
Высота : 576 пикселей
Соотношение сторон : 16:9
Частота кадров : 25,000 кадров/сек
Стандарт вещания : PAL
Метод сжатия : С потерями
Текст
Формат : RLE
Формат/Информация : Run-length encoding
Битовая глубина : 2 бит
Общее
Полное имя : C:\Black Crowes - E-Werk Cologne 1992 (DVD9)\VIDEO_TS\VIDEO_TS.IFO
Формат : DVD Video
Профиль формата : Menu
Размер файла : 16,0 Кбайт
Режим общего битрейта : Переменный
Видео
Идентификатор : 224 (0xE0)
Формат : MPEG Video
Версия формата : Version 2
Вид битрейта : Переменный
Ширина : 720 пикселей
Высота : 576 пикселей
Соотношение сторон : 16:9
Частота кадров : 25,000 кадров/сек
Стандарт вещания : PAL
Метод сжатия : С потерями
Текст
Формат : RLE
Формат/Информация : Run-length encoding
Битовая глубина : 2 бит
Общее
Полное имя : C:\Black Crowes - E-Werk Cologne 1992 (DVD9)\VIDEO_TS\VIDEO_TS.VOB
Формат : MPEG-PS
Размер файла : 154 Кбайт
Продолжительность : 600 мс.
Общий поток : 2103 Кбит/сек
Видео
Идентификатор : 224 (0xE0)
Формат : MPEG Video
Версия формата : Version 2
Профиль формата : [email protected]
Параметр BVOP формата : Да
Параметр матрицы формата : Выборочная
Структура изображения : Frame
Продолжительность : 600 мс.
Максимальный битрейт : 2000 Кбит/сек
Ширина : 720 пикселей
Высота : 576 пикселей
Соотношение сторон : 4:3
Частота кадров : 25,000 кадров/сек
Стандарт вещания : PAL
Цветовое пространство : YUV
Субдискретизация насыщенности : 4:2:0
Битовая глубина : 8 бит
Тип развёртки : Чересстрочная
Порядок развёртки : Верхнее поле первое
Метод сжатия : С потерями
Временной код первого кадра : 00:00:00:00
Оригинал временного кода : Group of pictures header
Текст
Идентификатор : 189 (0xBD)-32 (0x20)
Формат : RLE
Формат/Информация : Run-length encoding
Режим смешивания : DVD-Video
Меню
Общее
Полное имя : C:\Black Crowes - E-Werk Cologne 1992 (DVD9)\VIDEO_TS\VTS_01_0.BUP
Формат : DVD Video
Профиль формата : Program
Размер файла : 20,0 Кбайт
Продолжительность : 12 с.
Режим общего битрейта : Переменный
Общий поток : 13,7 Кбит/сек
Видео
Идентификатор : 224 (0xE0)
Формат : MPEG Video
Версия формата : Version 2
Продолжительность : 12 с.
Вид битрейта : Переменный
Ширина : 720 пикселей
Высота : 576 пикселей
Соотношение сторон : 16:9
Частота кадров : 25,000 кадров/сек
Стандарт вещания : PAL
Метод сжатия : С потерями
Меню
Продолжительность : 12 с.
00:00:00.000 : Chapter 1
00:00:11.400 : Chapter 2
Общее
Полное имя : C:\Black Crowes - E-Werk Cologne 1992 (DVD9)\VIDEO_TS\VTS_01_0.IFO
Формат : DVD Video
Профиль формата : Program
Размер файла : 20,0 Кбайт
Продолжительность : 12 с.
Режим общего битрейта : Переменный
Общий поток : 13,7 Кбит/сек
Видео
Идентификатор : 224 (0xE0)
Формат : MPEG Video
Версия формата : Version 2
Продолжительность : 12 с.
Вид битрейта : Переменный
Ширина : 720 пикселей
Высота : 576 пикселей
Соотношение сторон : 16:9
Частота кадров : 25,000 кадров/сек
Стандарт вещания : PAL
Метод сжатия : С потерями
Меню
Продолжительность : 12 с.
00:00:00.000 : Chapter 1
00:00:11.400 : Chapter 2
Общее
Полное имя : C:\Black Crowes - E-Werk Cologne 1992 (DVD9)\VIDEO_TS\VTS_01_0.VOB
Формат : MPEG-PS
Размер файла : 4,17 Мбайт
Продолжительность : 5 с. 0 мс.
Режим общего битрейта : Переменный
Общий поток : 6989 Кбит/сек
Видео
Идентификатор : 224 (0xE0)
Формат : MPEG Video
Версия формата : Version 2
Профиль формата : [email protected]
Параметр BVOP формата : Да
Параметр матрицы формата : Выборочная
Параметр GOP формата : M=3, N=12
Структура изображения : Frame
Продолжительность : 5 с. 0 мс.
Вид битрейта : Переменный
Битрейт : 6850 Кбит/сек
Максимальный битрейт : 8000 Кбит/сек
Ширина : 720 пикселей
Высота : 576 пикселей
Соотношение сторон : 16:9
Частота кадров : 25,000 кадров/сек
Стандарт вещания : PAL
Цветовое пространство : YUV
Субдискретизация насыщенности : 4:2:0
Битовая глубина : 8 бит
Тип развёртки : Чересстрочная
Порядок развёртки : Верхнее поле первое
Метод сжатия : С потерями
Бит/(Пиксели*Кадры) : 0.661
Временной код первого кадра : 00:00:00:00
Оригинал временного кода : Group of pictures header
GOP, открыто/закрыто : Закрыто
Размер потока : 4,08 Мбайт (98%)
Текст #1
Идентификатор : 189 (0xBD)-32 (0x20)
Формат : RLE
Формат/Информация : Run-length encoding
Режим смешивания : DVD-Video
Текст #2
Идентификатор : 189 (0xBD)-33 (0x21)
Формат : RLE
Формат/Информация : Run-length encoding
Режим смешивания : DVD-Video
Меню
Общее
Полное имя : C:\Black Crowes - E-Werk Cologne 1992 (DVD9)\VIDEO_TS\VTS_01_1.VOB
Формат : MPEG-PS
Размер файла : 5,81 Мбайт
Продолжительность : 12 с.
Режим общего битрейта : Переменный
Общий поток : 4061 Кбит/сек
Видео
Идентификатор : 224 (0xE0)
Формат : MPEG Video
Версия формата : Version 2
Профиль формата : [email protected]
Параметр BVOP формата : Да
Параметр матрицы формата : Выборочная
Параметр GOP формата : Variable
Структура изображения : Frame
Продолжительность : 12 с.
Вид битрейта : Переменный
Битрейт : 3980 Кбит/сек
Максимальный битрейт : 7700 Кбит/сек
Ширина : 720 пикселей
Высота : 576 пикселей
Соотношение сторон : 16:9
Частота кадров : 25,000 кадров/сек
Стандарт вещания : PAL
Цветовое пространство : YUV
Субдискретизация насыщенности : 4:2:0
Битовая глубина : 8 бит
Тип развёртки : Чересстрочная
Порядок развёртки : Нижнее поле первое
Метод сжатия : С потерями
Бит/(Пиксели*Кадры) : 0.384
Временной код первого кадра : 01:00:00:00
Оригинал временного кода : Group of pictures header
GOP, открыто/закрыто : Закрыто
Размер потока : 5,69 Мбайт (98%)
Основные цвета : BT.601 PAL
Характеристики трансфера : BT.470 System B, BT.470 System G
Коэффициенты матрицы : BT.601
Меню
Общее
Полное имя : C:\Black Crowes - E-Werk Cologne 1992 (DVD9)\VIDEO_TS\VTS_02_0.BUP
Формат : DVD Video
Профиль формата : Program
Размер файла : 18,0 Кбайт
Продолжительность : 20 с.
Режим общего битрейта : Переменный
Общий поток : 7144 бит/сек
Видео
Идентификатор : 224 (0xE0)
Формат : MPEG Video
Версия формата : Version 2
Продолжительность : 20 с.
Вид битрейта : Переменный
Ширина : 720 пикселей
Высота : 576 пикселей
Соотношение сторон : 16:9
Частота кадров : 25,000 кадров/сек
Стандарт вещания : PAL
Метод сжатия : С потерями
Меню
Продолжительность : 20 с.
00:00:00.000 : Chapter 1
00:00:19.680 : Chapter 2
Общее
Полное имя : C:\Black Crowes - E-Werk Cologne 1992 (DVD9)\VIDEO_TS\VTS_02_0.IFO
Формат : DVD Video
Профиль формата : Program
Размер файла : 18,0 Кбайт
Продолжительность : 20 с.
Режим общего битрейта : Переменный
Общий поток : 7144 бит/сек
Видео
Идентификатор : 224 (0xE0)
Формат : MPEG Video
Версия формата : Version 2
Продолжительность : 20 с.
Вид битрейта : Переменный
Ширина : 720 пикселей
Высота : 576 пикселей
Соотношение сторон : 16:9
Частота кадров : 25,000 кадров/сек
Стандарт вещания : PAL
Метод сжатия : С потерями
Меню
Продолжительность : 20 с.
00:00:00.000 : Chapter 1
00:00:19.680 : Chapter 2
Общее
Полное имя : C:\Black Crowes - E-Werk Cologne 1992 (DVD9)\VIDEO_TS\VTS_02_0.VOB
Формат : MPEG-PS
Размер файла : 154 Кбайт
Продолжительность : 600 мс.
Общий поток : 2103 Кбит/сек
Видео
Идентификатор : 224 (0xE0)
Формат : MPEG Video
Версия формата : Version 2
Профиль формата : [email protected]
Параметр BVOP формата : Да
Параметр матрицы формата : Выборочная
Структура изображения : Frame
Продолжительность : 600 мс.
Максимальный битрейт : 2000 Кбит/сек
Ширина : 720 пикселей
Высота : 576 пикселей
Соотношение сторон : 4:3
Частота кадров : 25,000 кадров/сек
Стандарт вещания : PAL
Цветовое пространство : YUV
Субдискретизация насыщенности : 4:2:0
Битовая глубина : 8 бит
Тип развёртки : Чересстрочная
Порядок развёртки : Верхнее поле первое
Метод сжатия : С потерями
Временной код первого кадра : 00:00:00:00
Оригинал временного кода : Group of pictures header
Текст
Идентификатор : 189 (0xBD)-32 (0x20)
Формат : RLE
Формат/Информация : Run-length encoding
Режим смешивания : DVD-Video
Меню
Общее
Полное имя : C:\Black Crowes - E-Werk Cologne 1992 (DVD9)\VIDEO_TS\VTS_02_1.VOB
Формат : MPEG-PS
Размер файла : 2,71 Мбайт
Продолжительность : 20 с.
Режим общего битрейта : Переменный
Общий поток : 1102 Кбит/сек
Видео
Идентификатор : 224 (0xE0)
Формат : MPEG Video
Версия формата : Version 2
Профиль формата : [email protected]
Параметр BVOP формата : Да
Параметр матрицы формата : Выборочная
Параметр GOP формата : M=3, N=12
Продолжительность : 20 с.
Вид битрейта : Переменный
Битрейт : 1080 Кбит/сек
Максимальный битрейт : 7700 Кбит/сек
Ширина : 720 пикселей
Высота : 576 пикселей
Соотношение сторон : 16:9
Частота кадров : 25,000 кадров/сек
Стандарт вещания : PAL
Цветовое пространство : YUV
Субдискретизация насыщенности : 4:2:0
Битовая глубина : 8 бит
Тип развёртки : Прогрессивная
Порядок развёртки : Нижнее поле первое
Метод сжатия : С потерями
Бит/(Пиксели*Кадры) : 0.104
Временной код первого кадра : 00:00:00:00
Оригинал временного кода : Group of pictures header
GOP, открыто/закрыто : Закрыто
Размер потока : 2,66 Мбайт (98%)
Основные цвета : BT.601 PAL
Характеристики трансфера : BT.470 System B, BT.470 System G
Коэффициенты матрицы : BT.601
Меню
Общее
Полное имя : C:\Black Crowes - E-Werk Cologne 1992 (DVD9)\VIDEO_TS\VTS_03_0.BUP
Формат : DVD Video
Профиль формата : Program
Размер файла : 72,0 Кбайт
Продолжительность : 1 ч. 41 м.
Режим общего битрейта : Переменный
Общий поток : 97 бит/сек
Видео
Идентификатор : 224 (0xE0)
Формат : MPEG Video
Версия формата : Version 2
Продолжительность : 1 ч. 41 м.
Вид битрейта : Переменный
Ширина : 720 пикселей
Высота : 576 пикселей
Соотношение сторон : 4:3
Частота кадров : 25,000 кадров/сек
Стандарт вещания : PAL
Метод сжатия : С потерями
Аудио
Идентификатор : 0 (0x0)
Формат : MPEG Audio
Профиль формата : Version 1
Продолжительность : 1 ч. 41 м.
Каналы : 2 канала
Частота : 48,0 КГц
Метод сжатия : С потерями
Меню
Продолжительность : 1 ч. 41 м.
00:00:00.000 : Chapter 1
00:05:56.080 : Chapter 2
00:13:54.640 : Chapter 3
00:18:50.320 : Chapter 4
00:22:56.560 : Chapter 5
00:30:36.400 : Chapter 6
00:41:30.160 : Chapter 7
00:49:22.960 : Chapter 8
00:55:21.520 : Chapter 9
00:57:10.960 : Chapter 10
01:02:10.000 : Chapter 11
01:05:14.800 : Chapter 12
01:09:16.720 : Chapter 13
01:18:45.040 : Chapter 14
01:23:55.120 : Chapter 15
01:29:25.840 : Chapter 16
01:41:11.440 : Chapter 17
01:41:41.440 : Chapter 18
List (Audio) : 0
Общее
Полное имя : C:\Black Crowes - E-Werk Cologne 1992 (DVD9)\VIDEO_TS\VTS_03_0.IFO
Формат : DVD Video
Профиль формата : Program
Размер файла : 72,0 Кбайт
Продолжительность : 1 ч. 41 м.
Режим общего битрейта : Переменный
Общий поток : 97 бит/сек
Видео
Идентификатор : 224 (0xE0)
Формат : MPEG Video
Версия формата : Version 2
Продолжительность : 1 ч. 41 м.
Вид битрейта : Переменный
Ширина : 720 пикселей
Высота : 576 пикселей
Соотношение сторон : 4:3
Частота кадров : 25,000 кадров/сек
Стандарт вещания : PAL
Метод сжатия : С потерями
Аудио
Идентификатор : 0 (0x0)
Формат : MPEG Audio
Профиль формата : Version 1
Продолжительность : 1 ч. 41 м.
Каналы : 2 канала
Частота : 48,0 КГц
Метод сжатия : С потерями
Меню
Продолжительность : 1 ч. 41 м.
00:00:00.000 : Chapter 1
00:05:56.080 : Chapter 2
00:13:54.640 : Chapter 3
00:18:50.320 : Chapter 4
00:22:56.560 : Chapter 5
00:30:36.400 : Chapter 6
00:41:30.160 : Chapter 7
00:49:22.960 : Chapter 8
00:55:21.520 : Chapter 9
00:57:10.960 : Chapter 10
01:02:10.000 : Chapter 11
01:05:14.800 : Chapter 12
01:09:16.720 : Chapter 13
01:18:45.040 : Chapter 14
01:23:55.120 : Chapter 15
01:29:25.840 : Chapter 16
01:41:11.440 : Chapter 17
01:41:41.440 : Chapter 18
List (Audio) : 0
Общее
Полное имя : C:\Black Crowes - E-Werk Cologne 1992 (DVD9)\VIDEO_TS\VTS_03_0.VOB
Формат : MPEG-PS
Размер файла : 154 Кбайт
Продолжительность : 600 мс.
Общий поток : 2103 Кбит/сек
Видео
Идентификатор : 224 (0xE0)
Формат : MPEG Video
Версия формата : Version 2
Профиль формата : [email protected]
Параметр BVOP формата : Да
Параметр матрицы формата : Выборочная
Структура изображения : Frame
Продолжительность : 600 мс.
Максимальный битрейт : 2000 Кбит/сек
Ширина : 720 пикселей
Высота : 576 пикселей
Соотношение сторон : 4:3
Частота кадров : 25,000 кадров/сек
Стандарт вещания : PAL
Цветовое пространство : YUV
Субдискретизация насыщенности : 4:2:0
Битовая глубина : 8 бит
Тип развёртки : Чересстрочная
Порядок развёртки : Верхнее поле первое
Метод сжатия : С потерями
Временной код первого кадра : 00:00:00:00
Оригинал временного кода : Group of pictures header
Текст
Идентификатор : 189 (0xBD)-32 (0x20)
Формат : RLE
Формат/Информация : Run-length encoding
Режим смешивания : DVD-Video
Меню
Общее
Полное имя : C:\Black Crowes - E-Werk Cologne 1992 (DVD9)\VIDEO_TS\VTS_03_1.VOB
Формат : MPEG-PS
Размер файла : 1024 Мбайт
Продолжительность : 19 м.
Режим общего битрейта : Переменный
Общий поток : 7273 Кбит/сек
Видео
Идентификатор : 224 (0xE0)
Формат : MPEG Video
Версия формата : Version 2
Профиль формата : [email protected]
Параметр BVOP формата : Да
Параметр матрицы формата : Выборочная
Параметр GOP формата : M=3, N=12
Структура изображения : Frame
Продолжительность : 19 м.
Вид битрейта : Переменный
Битрейт : 6936 Кбит/сек
Ширина : 720 пикселей
Высота : 576 пикселей
Соотношение сторон : 4:3
Частота кадров : 25,000 кадров/сек
Стандарт вещания : PAL
Цветовое пространство : YUV
Субдискретизация насыщенности : 4:2:0
Битовая глубина : 8 бит
Тип развёртки : Чересстрочная
Порядок развёртки : Верхнее поле первое
Метод сжатия : С потерями
Бит/(Пиксели*Кадры) : 0.669
Временной код первого кадра : 12:24:22:10
Оригинал временного кода : Group of pictures header
GOP, открыто/закрыто : Открыто
Размер потока : 976 Мбайт (95%)
Аудио
Идентификатор : 192 (0xC0)
Формат : MPEG Audio
Версия формата : Version 1
Профиль формата : Layer 2
Продолжительность : 19 м.
Вид битрейта : Постоянный
Битрейт : 192 Кбит/сек
Каналы : 2 канала
Частота : 48,0 КГц
Метод сжатия : С потерями
Размер потока : 27,0 Мбайт (3%)
Меню
Общее
Полное имя : C:\Black Crowes - E-Werk Cologne 1992 (DVD9)\VIDEO_TS\VTS_03_2.VOB
Формат : MPEG-PS
Размер файла : 1024 Мбайт
Продолжительность : 19 м.
Режим общего битрейта : Переменный
Общий поток : 7245 Кбит/сек
Видео
Идентификатор : 224 (0xE0)
Формат : MPEG Video
Версия формата : Version 2
Профиль формата : [email protected]
Параметр BVOP формата : Да
Параметр матрицы формата : Выборочная
Параметр GOP формата : M=3, N=12
Структура изображения : Frame
Продолжительность : 19 м.
Вид битрейта : Переменный
Битрейт : 6909 Кбит/сек
Максимальный битрейт : 15,0 Мбит/сек
Ширина : 720 пикселей
Высота : 576 пикселей
Соотношение сторон : 4:3
Частота кадров : 25,000 кадров/сек
Стандарт вещания : PAL
Цветовое пространство : YUV
Субдискретизация насыщенности : 4:2:0
Битовая глубина : 8 бит
Тип развёртки : Чересстрочная
Порядок развёртки : Верхнее поле первое
Метод сжатия : С потерями
Бит/(Пиксели*Кадры) : 0.666
Временной код первого кадра : 12:44:03:17
Оригинал временного кода : Group of pictures header
GOP, открыто/закрыто : Открыто
Размер потока : 976 Мбайт (95%)
Аудио
Идентификатор : 192 (0xC0)
Формат : MPEG Audio
Версия формата : Version 1
Профиль формата : Layer 2
Продолжительность : 19 м.
Вид битрейта : Постоянный
Битрейт : 192 Кбит/сек
Каналы : 2 канала
Частота : 48,0 КГц
Метод сжатия : С потерями
Задержка видео : -648 мс.
Размер потока : 27,1 Мбайт (3%)
Меню
Общее
Полное имя : C:\Black Crowes - E-Werk Cologne 1992 (DVD9)\VIDEO_TS\VTS_03_3.VOB
Формат : MPEG-PS
Размер файла : 1024 Мбайт
Продолжительность : 19 м.
Режим общего битрейта : Переменный
Общий поток : 7264 Кбит/сек
Видео
Идентификатор : 224 (0xE0)
Формат : MPEG Video
Версия формата : Version 2
Профиль формата : [email protected]
Параметр BVOP формата : Да
Параметр матрицы формата : Выборочная
Параметр GOP формата : M=3, N=12
Структура изображения : Frame
Продолжительность : 19 м.
Вид битрейта : Переменный
Битрейт : 6927 Кбит/сек
Максимальный битрейт : 15,0 Мбит/сек
Ширина : 720 пикселей
Высота : 576 пикселей
Соотношение сторон : 4:3
Частота кадров : 25,000 кадров/сек
Стандарт вещания : PAL
Цветовое пространство : YUV
Субдискретизация насыщенности : 4:2:0
Битовая глубина : 8 бит
Тип развёртки : Чересстрочная
Порядок развёртки : Верхнее поле первое
Метод сжатия : С потерями
Бит/(Пиксели*Кадры) : 0.668
Временной код первого кадра : 13:03:49:07
Оригинал временного кода : Group of pictures header
GOP, открыто/закрыто : Открыто
Размер потока : 976 Мбайт (95%)
Аудио
Идентификатор : 192 (0xC0)
Формат : MPEG Audio
Версия формата : Version 1
Профиль формата : Layer 2
Продолжительность : 19 м.
Вид битрейта : Постоянный
Битрейт : 192 Кбит/сек
Каналы : 2 канала
Частота : 48,0 КГц
Метод сжатия : С потерями
Задержка видео : -744 мс.
Размер потока : 27,1 Мбайт (3%)
Меню
Общее
Полное имя : C:\Black Crowes - E-Werk Cologne 1992 (DVD9)\VIDEO_TS\VTS_03_4.VOB
Формат : MPEG-PS
Размер файла : 1024 Мбайт
Продолжительность : 19 м.
Режим общего битрейта : Переменный
Общий поток : 7260 Кбит/сек
Видео
Идентификатор : 224 (0xE0)
Формат : MPEG Video
Версия формата : Version 2
Профиль формата : [email protected]
Параметр BVOP формата : Да
Параметр матрицы формата : Выборочная
Параметр GOP формата : M=3, N=12
Структура изображения : Frame
Продолжительность : 19 м.
Вид битрейта : Переменный
Битрейт : 6923 Кбит/сек
Максимальный битрейт : 15,0 Мбит/сек
Ширина : 720 пикселей
Высота : 576 пикселей
Соотношение сторон : 4:3
Частота кадров : 25,000 кадров/сек
Стандарт вещания : PAL
Цветовое пространство : YUV
Субдискретизация насыщенности : 4:2:0
Битовая глубина : 8 бит
Тип развёртки : Чересстрочная
Порядок развёртки : Верхнее поле первое
Метод сжатия : С потерями
Бит/(Пиксели*Кадры) : 0.668
Временной код первого кадра : 13:23:31:13
Оригинал временного кода : Group of pictures header
GOP, открыто/закрыто : Открыто
Размер потока : 976 Мбайт (95%)
Аудио
Идентификатор : 192 (0xC0)
Формат : MPEG Audio
Версия формата : Version 1
Профиль формата : Layer 2
Продолжительность : 19 м.
Вид битрейта : Постоянный
Битрейт : 192 Кбит/сек
Каналы : 2 канала
Частота : 48,0 КГц
Метод сжатия : С потерями
Задержка видео : -552 мс.
Размер потока : 27,1 Мбайт (3%)
Меню
Общее
Полное имя : C:\Black Crowes - E-Werk Cologne 1992 (DVD9)\VIDEO_TS\VTS_03_5.VOB
Формат : MPEG-PS
Размер файла : 1024 Мбайт
Продолжительность : 19 м.
Режим общего битрейта : Переменный
Общий поток : 7258 Кбит/сек
Видео
Идентификатор : 224 (0xE0)
Формат : MPEG Video
Версия формата : Version 2
Профиль формата : [email protected]
Параметр BVOP формата : Да
Параметр матрицы формата : Выборочная
Параметр GOP формата : M=3, N=12
Структура изображения : Frame
Продолжительность : 19 м.
Вид битрейта : Переменный
Битрейт : 6922 Кбит/сек
Максимальный битрейт : 15,0 Мбит/сек
Ширина : 720 пикселей
Высота : 576 пикселей
Соотношение сторон : 4:3
Частота кадров : 25,000 кадров/сек
Стандарт вещания : PAL
Цветовое пространство : YUV
Субдискретизация насыщенности : 4:2:0
Битовая глубина : 8 бит
Тип развёртки : Чересстрочная
Порядок развёртки : Верхнее поле первое
Метод сжатия : С потерями
Бит/(Пиксели*Кадры) : 0.668
Временной код первого кадра : 13:43:14:18
Оригинал временного кода : Group of pictures header
GOP, открыто/закрыто : Открыто
Размер потока : 976 Мбайт (95%)
Аудио
Идентификатор : 192 (0xC0)
Формат : MPEG Audio
Версия формата : Version 1
Профиль формата : Layer 2
Продолжительность : 19 м.
Вид битрейта : Постоянный
Битрейт : 192 Кбит/сек
Каналы : 2 канала
Частота : 48,0 КГц
Метод сжатия : С потерями
Задержка видео : -696 мс.
Размер потока : 27,1 Мбайт (3%)
Меню
Общее
Полное имя : C:\Black Crowes - E-Werk Cologne 1992 (DVD9)\VIDEO_TS\VTS_03_6.VOB
Формат : MPEG-PS
Размер файла : 141 Мбайт
Продолжительность : 3 м. 7 с.
Режим общего битрейта : Переменный
Общий поток : 6279 Кбит/сек
Видео
Идентификатор : 224 (0xE0)
Формат : MPEG Video
Версия формата : Version 2
Профиль формата : [email protected]
Параметр BVOP формата : Да
Параметр матрицы формата : Выборочная
Параметр GOP формата : Variable
Структура изображения : Frame
Продолжительность : 3 м. 7 с.
Вид битрейта : Переменный
Битрейт : 5962 Кбит/сек
Максимальный битрейт : 15,0 Мбит/сек
Ширина : 720 пикселей
Высота : 576 пикселей
Соотношение сторон : 4:3
Частота кадров : 25,000 кадров/сек
Стандарт вещания : PAL
Цветовое пространство : YUV
Субдискретизация насыщенности : 4:2:0
Битовая глубина : 8 бит
Тип развёртки : Чересстрочная
Порядок развёртки : Верхнее поле первое
Метод сжатия : С потерями
Бит/(Пиксели*Кадры) : 0.575
Временной код первого кадра : 14:02:57:23
Оригинал временного кода : Group of pictures header
GOP, открыто/закрыто : Открыто
Размер потока : 134 Мбайт (95%)
Аудио
Идентификатор : 192 (0xC0)
Формат : MPEG Audio
Версия формата : Version 1
Профиль формата : Layer 2
Продолжительность : 3 м. 7 с.
Вид битрейта : Постоянный
Битрейт : 192 Кбит/сек
Каналы : 2 канала
Частота : 48,0 КГц
Метод сжатия : С потерями
Задержка видео : -552 мс.
Размер потока : 4,30 Мбайт (3%)
Меню
Скриншот меню
Скриншоты
Download
Для скачивания .torrent файлов необходима регистрация
Сайт не распространяет и не хранит электронные версии произведений, а лишь предоставляет доступ к создаваемому пользователями каталогу ссылок на торрент-файлы, которые содержат только списки хеш-сумм
[Профиль]  [ЛС] 

meloman67

Moderator

Стаж: 9 лет 8 месяцев

Сообщений: 5839

meloman67 · 18-Июл-09 12:49 (спустя 6 дней, ред. 04-Июн-17 13:27)

[Цитировать] 

The Black Crowes - Warpaint Live 2008 (Eagle Rock Entertainment Ltd.) [2009, rock, DVD9]
Chris & Rich Robinson(The Black Crowes) Brothers of a Feather: Live At The Roxy (Eagle Eye Productions) [2007 г., rock, DVD5]
[Профиль]  [ЛС] 

megaoxygen

Стаж: 10 лет 2 месяца

Сообщений: 91

megaoxygen · 12-Авг-09 16:55 (спустя 25 дней)

[Цитировать] 

пупочку поджать\подрезать бы и в ДВД5
а?
[Профиль]  [ЛС] 

andrey69w

Стаж: 9 лет 4 месяца

Сообщений: 1189

andrey69w · 31-Янв-10 17:59 (спустя 5 месяцев 19 дней, ред. 01-Фев-10 12:04)

[Цитировать] 

[B] meloman67 [/ B]
Спасибо за одну из любимых групп и очень жаль, что такая музыка находится на 93стр.
закачал, просмотрел 2 раза супер .. спасибо большое!
[Профиль]  [ЛС] 

[email protected]ъ

Стаж: 8 лет 11 месяцев

Сообщений: 12

[email protected]ъ · 30-Апр-10 14:18 (спустя 2 месяца 29 дней, ред. 30-Апр-10 14:18)

[Цитировать] 

Ребятки!!! А раздаст кто нить?
Абыдна, да...
[Профиль]  [ЛС] 

ddad

Стаж: 10 лет 8 месяцев

Сообщений: 9


ddad · 30-Июл-10 08:56 (спустя 2 месяца 29 дней)

[Цитировать] 

Посидируйте плизз кто-нибудь а то очень хочется глянуть
[Профиль]  [ЛС] 

Скворец66

Стаж: 9 лет 8 месяцев

Сообщений: 3290

Скворец66 · 16-Авг-10 00:59 (спустя 16 дней)

[Цитировать] 

Я конечно дико извиняюсь, но согласно биографии группы, представленной здесь - http://rutracker.org/forum/viewtopic.php?t=1472209 , в 1992 году состав таким быть не мог. Наверное здесь указан последний состав группы.
[Профиль]  [ЛС] 

meloman67

Moderator

Стаж: 9 лет 8 месяцев

Сообщений: 5839

meloman67 · 16-Авг-10 17:00 (спустя 16 часов)

[Цитировать] 

Скворец66 писал(а):
в 1992 году состав таким быть не мог
'Ок, подкорректировал
[Профиль]  [ЛС] 

Скворец66

Стаж: 9 лет 8 месяцев

Сообщений: 3290

Скворец66 · 16-Авг-10 20:34 (спустя 3 часа)

[Цитировать] 

meloman67
Спасибо, а вот с Марком Фордом это уже интереснее. (ИМХО).
[Профиль]  [ЛС] 

nut123

Стаж: 6 лет 1 месяц

Сообщений: 10


nut123 · 22-Ноя-12 17:01 (спустя 2 года 3 месяца)

[Цитировать] 

Спасибо большое !
У меня есть версия AVI этого шоу, так что это обновление для меня. Цифровой ретрансляции с 2008года, а не в 1992 году VHS кассеты рип, поэтому качество видео является удивительным.
ссылка удалена модератором
Отличное шоу, и весело крышку Боба Марли "Three Little Birds".
Правила пользования данным ресурсом
п.2.10
Вам устное замечание
CHKA1961
[Профиль]  [ЛС] 

OlegAgapov2012

Стаж: 7 лет 1 месяц

Сообщений: 2182

OlegAgapov2012 · 23-Ноя-12 12:52 (спустя 19 часов)

[Цитировать] 

Благодарю за отличную раздачу!Все в лучшем виде-давно искал их сольник,ранее видел их вместе с R.PLANT&J. PAGE!Еще раз благодпрю за труд по созданию релиза и полное уважение,раздающим-удачи и всех благ!!!
[Профиль]  [ЛС] 

true watcher

Хранитель

Стаж: 9 лет 8 месяцев

Сообщений: 535

true watcher · 04-Июн-17 10:12 (спустя 4 года 6 месяцев)

[Цитировать] 

Приватный торрент-файл заменён по просьбе администрации ресурса.
Просьба к ранее скачавшим присоединиться к раздаче.
[Профиль]  [ЛС] 

HomoHabilis

Стаж: 6 лет 11 месяцев

Сообщений: 90


HomoHabilis · 04-Ноя-18 22:23 (спустя 1 год 5 месяцев)

[Цитировать] 

Thank You!
[Профиль]  [ЛС] 
 
Ответить
Loading...
Error