(Chamber Jazz) Leonid Chizhik - In Concert - 1986, FLAC (tracks+.cue), lossless

Страницы:  1

Ответить
Автор
Сообщение

gromzy

Top Seed 02* 80r

Стаж: 10 лет 1 месяц

Сообщений: 357

gromzy · 13-Июн-09 12:24 (9 лет назад, ред. 13-Июн-09 12:27)

[Цитировать] 

Leonid Chizhik - In Concert
Жанр: Chamber Jazz
Год выпуска диска: 1986
Производитель диска: MFSL, Japan
Аудио кодек: FLAC
Тип рипа: tracks+.cue
Битрейт аудио: lossless
Продолжительность: 71:18
Трэклист:
01 Mobius Strip
02 Composition on the Theme 'Embraceable You' by Geroge Gershwin
03 Spontaneous Improvisation
04 Composition on the Theme 'Every Day We Say Goodbye' by Cole Porte
05 Alka
06 Participation ('Prichastnost')
07 Dedication ('Posviashcheniye')
08 Composition on the Theme 'Creole Love Call' by Duke Ellington.
Отчет EAC
xact Audio Copy V0.99 prebeta 4 from 23. January 2008
EAC extraction logfile from 16. February 2009, 13:36
Leonid Chizhik / In Concert
Used drive : TOSHIBA DVD-ROM SD-M1912 Adapter: 0 ID: 0
Read mode : Secure
Utilize accurate stream : Yes
Defeat audio cache : No
Make use of C2 pointers : Yes
Read offset correction : 12
Overread into Lead-In and Lead-Out : No
Fill up missing offset samples with silence : Yes
Delete leading and trailing silent blocks : No
Null samples used in CRC calculations : Yes
Used interface : Installed external ASPI interface
Gap handling : Appended to previous track
Used output format : User Defined Encoder
Selected bitrate : 128 kBit/s
Quality : High
Add ID3 tag : No
Command line compressor : C:\Program Files\FLAC\flac.exe
Additional command line options : -V -8 -T "artist=%a" -T "title=%t" -T "album=%g" -T "date=%y" -T "tracknumber=%n" -T "genre=%m" %s
TOC of the extracted CD
Track | Start | Length | Start sector | End sector
---------------------------------------------------------
1 | 0:00.00 | 8:57.00 | 0 | 40274
2 | 8:57.00 | 7:17.00 | 40275 | 73049
3 | 16:14.00 | 5:26.25 | 73050 | 97524
4 | 21:40.25 | 11:10.50 | 97525 | 147824
5 | 32:51.00 | 9:52.00 | 147825 | 192224
6 | 42:43.00 | 6:32.25 | 192225 | 221649
7 | 49:15.25 | 15:29.50 | 221650 | 291374
8 | 64:45.00 | 6:34.00 | 291375 | 320924
Track 1
Filename G:\Leonid Chizhik - In Concert MFSL MFCD 887 ( 1986 )\01 Leonid Chizhik - Mobius Strip.wav
Pre-gap length 0:00:02.00
Peak level 100.0 %
Track quality 100.0 %
Test CRC 3AB69CF3
Copy CRC 3AB69CF3
Track not present in AccurateRip database
Copy OK
Track 2
Filename G:\Leonid Chizhik - In Concert MFSL MFCD 887 ( 1986 )\02 Leonid Chizhik - Composition on the Theme 'Embraceable You' by Geroge Gershwin.wav
Peak level 92.2 %
Track quality 100.0 %
Test CRC A38658D7
Copy CRC A38658D7
Track not present in AccurateRip database
Copy OK
Track 3
Filename G:\Leonid Chizhik - In Concert MFSL MFCD 887 ( 1986 )\03 Leonid Chizhik - Spontaneous Improvisation.wav
Peak level 91.9 %
Track quality 100.0 %
Test CRC C3143D6E
Copy CRC C3143D6E
Track not present in AccurateRip database
Copy OK
Track 4
Filename G:\Leonid Chizhik - In Concert MFSL MFCD 887 ( 1986 )\04 Leonid Chizhik - Composition on the Theme 'Every Day We Say Goodbye' by Cole Porter.wav
Peak level 100.0 %
Track quality 100.0 %
Test CRC D61D1781
Copy CRC D61D1781
Track not present in AccurateRip database
Copy OK
Track 5
Filename G:\Leonid Chizhik - In Concert MFSL MFCD 887 ( 1986 )\05 Leonid Chizhik - Alka.wav
Peak level 100.0 %
Track quality 100.0 %
Test CRC 844C5203
Copy CRC 844C5203
Track not present in AccurateRip database
Copy OK
Track 6
Filename G:\Leonid Chizhik - In Concert MFSL MFCD 887 ( 1986 )\06 Leonid Chizhik - Participation ('Prichastnost').wav
Peak level 62.2 %
Track quality 100.0 %
Test CRC 6382A569
Copy CRC 6382A569
Track not present in AccurateRip database
Copy OK
Track 7
Filename G:\Leonid Chizhik - In Concert MFSL MFCD 887 ( 1986 )\07 Leonid Chizhik - Dedication ('Posviashcheniye').wav
Peak level 56.3 %
Track quality 100.0 %
Test CRC B75D9032
Copy CRC B75D9032
Track not present in AccurateRip database
Copy OK
Track 8
Filename G:\Leonid Chizhik - In Concert MFSL MFCD 887 ( 1986 )\08 Leonid Chizhik - Composition on the Theme 'Creole Love Call' by Duke Ellington.wav
Peak level 55.6 %
Track quality 100.0 %
Test CRC 583BAD41
Copy CRC 583BAD41
Track not present in AccurateRip database
Copy OK
None of the tracks are present in the AccurateRip database
No errors occurred
End of status report
Доп. информация: Диск выпущен в Японии лейблом Mobile Fidelity Sound Lab по лицензии издательства "Международная книга" и фирмы "Мелодия" и представляет собой компиляцию записей с двух сольных альбомов Леонида Чижика - "Лента Мебиуса" (1986) и "Реминисценции" (1980). Источник - what.cd
[Профиль]  [ЛС] 

GrBear

VIP (Заслуженный)

Стаж: 11 лет

Сообщений: 8643

GrBear · 14-Июн-09 00:54 (спустя 12 часов)

[Цитировать] 

Defeat audio cache : No
Make use of C2 pointers : Yes

=> сомнительно
[Профиль]  [ЛС] 

Yuriy DAC

Стаж: 10 лет 7 месяцев

Сообщений: 41


Yuriy DAC · 17-Июн-09 20:59 (спустя 3 дня)

[Цитировать] 

Большое спасибо!
На диске утверждается, что сделано с мастер-лент. Интересно, где они их взяли? Не в традициях Мелодии хранить мастеры. Во всяком случае, звучит неплохо!
[Профиль]  [ЛС] 

gromzy

Top Seed 02* 80r

Стаж: 10 лет 1 месяц

Сообщений: 357

gromzy · 17-Июн-09 21:21 (спустя 21 мин., ред. 17-Июн-09 21:21)

[Цитировать] 

Yuriy DAC писал(а):
На диске утверждается, что сделано с мастер-лент. Интересно, где они их взяли? Не в традициях Мелодии хранить мастеры. Во всяком случае, звучит неплохо!
Я думаю в 1986 году мастера, тем более концертные, еще были, кроме того эти ребята (MFSL) врать не будут, написано original master, значит original.
[Профиль]  [ЛС] 

vadimeremeev4

Стаж: 9 лет 8 месяцев

Сообщений: 25


vadimeremeev4 · 13-Янв-10 03:31 (спустя 6 месяцев, ред. 13-Янв-10 12:11)

[Цитировать] 

Уважаемые! Дайте скачать, уж очень нравится .
Спасибо за содействие
[Профиль]  [ЛС] 

saolev

Стаж: 9 лет 9 месяцев

Сообщений: 233

saolev · 10-Авг-13 10:27 (спустя 3 года 6 месяцев)

[Цитировать] 

Прошу сидов вернуться на раздачу. Уж очень хочется Чижика послушать..
[Профиль]  [ЛС] 

simple.i

Moderator

Стаж: 9 лет 6 месяцев

Сообщений: 8631

simple.i · 07-Фев-18 15:29 (спустя 4 года 5 месяцев)

[Цитировать] 

http://rutracker.org/forum/viewtopic.php?t=5517578
[Профиль]  [ЛС] 

bot · 07-Фев-18 15:29 (спустя 4 сек.)

Тема была перенесена из форума Отечественный джаз (lossless) в форум Архив
simple.i
 
 
Ответить
Loading...
Error