Черное озеро / Svartsjön / Сезон: 1 / Серии: 1-8 из 8 (Дэвид Беррон, Джонатан Сьоберг) [2016, Швеция, Дания, Норвегия, ужасы, триллер, WEB-DLRip] DVO (ViruseProject) + Original + sub (Rus)

Страницы:  1
Ответить
Автор
Сообщение

агент смит

Стаж: 10 лет 1 месяц

Сообщений: 2340

агент смит · 30-Мар-19 11:32 (4 месяца 18 дней назад, ред. 03-Апр-19 09:39)

Черное озеро / Svartsjön
Год выпуска: 2016
Страна: Швеция, Дания, Норвегия
Жанр: ужасы, триллер
Продолжительность: ~00:43:00
Перевод: Любительский (двухголосый закадровый) ViruseProject
Режиссёр: Дэвид Беррон, Джонатан Сьоберг
В ролях: Филип Берг, Вальтер Скарсгард, Анна Острём, Сара-Софи Бусснина, Матильда Норхольт, Филип Орос, Алиетт Офейм, Один Вааге и др.

Описание: Действие первого сезона триллера-ужастика "Черное озеро" происходит на заброшенном горнолыжном курорте на севере, куда приезжает главный герой Юхан вместе с друзьями.
"Черное озеро" было закрыто в течение многих лет. Амбициозный Юхан горит идеей купить курорт и открыть его заново. В пробную поездку он пригласил компанию лучших друзей. Молодые люди хотят покататься на лыжах и повеселиться. Но в первую же ночь подругу Юхана, Ханну, будят странные звуки из подвала. Хозяин мешает им проводить расследование. Выясняется, что курорт закрыли после того, как там была найдена задушенной семья. Один за другим молодые люди просыпаются с налитыми кровью глазами, им снятся кошмары. А тут еще и экстремальные морозы ударили.
Ханна убеждена, что сверхъестественные силы желают им зла. Что происходит? Кому можно доверять? Кто выживет?

Качество: WEB-DLRip
Контейнер: AVI
Видео: 720x400 (1.80:1), 25 fps, XviD build 67 ~1599 kbps avg, 0.22 bit/pixel
Аудио Rus: 48.0 kHz, AC3, 2 channels, 192 kb/s
Аудио Swe: 48.0 kHz, AC3, 2 channels, 192 kb/s
Субтитры: русские (Ольга Барбашова - Skandiskåpet: скандинавские сериалы и фильмы)
Реклама: НЕТ
MediaInfo
General
Complete name : Svartsjon.S01E01.400p.WEB-DL.ViruseProject.avi
Format : AVI
Format/Info : Audio Video Interleave
File size : 611 MiB
Duration : 42 min 50 s
Overall bit rate : 1 995 kb/s
Writing application : VirtualDubMod 1.5.10.2 (build 2540/release)
Writing library : VirtualDubMod build 2540/release
Video
ID : 0
Format : MPEG-4 Visual
Format profile : Advanced [email protected]
Format settings, BVOP : 2
Format settings, QPel : No
Format settings, GMC : No warppoints
Format settings, Matrix : Default (H.263)
Codec ID : XVID
Codec ID/Hint : XviD
Duration : 42 min 50 s
Bit rate : 1 600 kb/s
Width : 720 pixels
Height : 400 pixels
Display aspect ratio : 16:9
Frame rate : 25.000 FPS
Color space : YUV
Chroma subsampling : 4:2:0
Bit depth : 8 bits
Scan type : Progressive
Compression mode : Lossy
Bits/(Pixel*Frame) : 0.222
Stream size : 490 MiB (80%)
Writing library : XviD 67
Audio #1
ID : 1
Format : AC-3
Format/Info : Audio Coding 3
Format settings, Endianness : Big
Codec ID : 2000
Duration : 42 min 49 s
Bit rate mode : Constant
Bit rate : 192 kb/s
Channel(s) : 2 channels
Channel positions : Front: L R
Sampling rate : 48.0 kHz
Frame rate : 31.250 FPS (1536 spf)
Bit depth : 16 bits
Compression mode : Lossy
Stream size : 58.8 MiB (10%)
Alignment : Split accross interleaves
Interleave, duration : 40 ms (1.00 video frame)
Interleave, preload duration : 500 ms
Service kind : Complete Main
Audio #2
ID : 2
Format : AC-3
Format/Info : Audio Coding 3
Format settings, Endianness : Big
Codec ID : 2000
Duration : 42 min 49 s
Source duration : 42 min 48 s
Bit rate mode : Constant
Bit rate : 192 kb/s
Channel(s) : 2 channels
Channel positions : Front: L R
Sampling rate : 48.0 kHz
Frame rate : 31.250 FPS (1536 spf)
Bit depth : 16 bits
Compression mode : Lossy
Stream size : 58.8 MiB (10%)
Alignment : Aligned on interleaves
Interleave, duration : 160 ms (4.00 video frames)
Interleave, preload duration : 640 ms
Service kind : Complete Main
Скриншоты
Предыдущие и альтернативные раздачи
Download
Сайт не распространяет и не хранит электронные версии произведений, а лишь предоставляет доступ к создаваемому пользователями каталогу ссылок на торрент-файлы, которые содержат только списки хеш-сумм
Как скачивать? (для скачивания .torrent файлов необходима регистрация)
[Профиль]  [ЛС] 

Wentworth_Miller

Moderator

Стаж: 10 лет 5 месяцев

Сообщений: 7896

Wentworth_Miller · 30-Мар-19 12:49 (спустя 1 час 16 мин.)

агент смит писал(а):
77120216~1499 kbps avg
~1600
агент смит писал(а):
77120216Субтитры: русские
Не забываем указывать автора
Ссылка на imdb с другого сериала
[Профиль]  [ЛС] 

Wentworth_Miller

Moderator

Стаж: 10 лет 5 месяцев

Сообщений: 7896

Wentworth_Miller · 30-Мар-19 16:05 (спустя 3 часа)

агент смит
Спасибо!
[Профиль]  [ЛС] 

Celta88

Moderator

Стаж: 10 лет 3 месяца

Сообщений: 7722

Celta88 · 01-Апр-19 10:36 (спустя 1 день 18 часов)

агент смит
Данное значение должно быть таким в обеих дорожках:
Цитата:
(1.00 video frame)
В противном случаи может не быть звука на определённых железных плеерах. По возможности оригинальный звук замените.
Т.к трекер русскоязычный статус:
проверено
[Профиль]  [ЛС] 

агент смит

Стаж: 10 лет 1 месяц

Сообщений: 2340

агент смит · 02-Апр-19 11:07 (спустя 1 день)

Celta88
А подскажите как его менять?
+7-8
[Профиль]  [ЛС] 

Feduh

Стаж: 11 месяцев

Сообщений: 4


Feduh · 08-Апр-19 13:21 (спустя 6 дней)

Пейзажи прекрасные, ужастика нет совсем, во второй серии примерно понятно, что будет в четвертой, а в процессе 4-5 муж говорит, буду разочарован, если братья бесятся вот по такому поводу(чтобы не спойлерить) так и оказалось), ну и финале, когда оставшийся в живых напялил, что никогда не носил, понятно Но совсем не пожалели, что потратили два вечера на просмотр, уложить детей и расслабиться, ожидая, угадали или нет сюжет и наслаждаясь зимними пейзажами Намешано всего конечно, но второй сезон решили качать, в ролях те, кто вроде должен был погибнуть, а смотря, как люди высказывают мнение оценками - я бы 6 из 10
[Профиль]  [ЛС] 

bot · 10-Апр-19 19:23 (спустя 2 дня 6 часов)

Тема была перенесена из форума Зарубежные сериалы в форум Скандинавские сериалы
Wentworth_Miller
 

Евроазиат8

Стаж: 8 лет 3 месяца

Сообщений: 164

Евроазиат8 · 11-Апр-19 23:55 (спустя 3 дня)

После финала вопросов больше чем ответов. Главную героиню перманентно хотелось ударить тапком по тупой упрямой башке)))
[Профиль]  [ЛС] 

.VIKA.

Стаж: 9 лет 3 месяца

Сообщений: 660

.VIKA. · 13-Апр-19 20:01 (спустя 1 день 20 часов)

скорее триллер , чем ужасы , мне понравилось , спасибо :)))
[Профиль]  [ЛС] 

JayTama

Стаж: 11 лет 9 месяцев

Сообщений: 75


JayTama · 13-Апр-19 20:43 (спустя 42 мин.)

сериал просто ни о чем, досмотрел только из уважения к скандинавам
[Профиль]  [ЛС] 

87alexius87

Стаж: 4 года 6 месяцев

Сообщений: 99

87alexius87 · 18-Апр-19 21:56 (спустя 5 дней)

JayTama писал(а):
77202530сериал просто ни о чем, досмотрел только из уважения к скандинавам
а вот я не знаю, зачем досмотрел. хотя небольшое оправдание этому есть: поначалу создатели пытаются нагнетать атмосферу, заканчивая серии на самом интересном. смотришь и думаешь, ну наверно уж дальше сюжет лихо закрутится!
главная героиня дико раздражает и начинает бесить уже к 3 серии; большинство диалогов уровня:
- я поговорила с эрке.
- что он сказал?
- ничего.
нелепое поведение персонажей; 70% действий происходит в полумраке; сюжет к 7 серии превращается в какой-то неудобоваримый винегрет...
из положительных сторон: прекрасные зимние пейзажи, приятный саундтрек. пожалуй, все.
[Профиль]  [ЛС] 

yura196

Стаж: 11 лет 6 месяцев

Сообщений: 190


yura196 · 22-Апр-19 16:33 (спустя 3 дня)

скука зелёная ! как такое можно снимать !!) а смотреть невозможно!
[Профиль]  [ЛС] 
 
Ответить
Loading...
Error