Сказание о принцессе Кагуя / Kaguya-hime no Monogatari / The Tale of the Princess Kaguya [Movie] [Без хардсаба] [RUS(int), JAP+SUB] [2013, сказка, драма, BDRip] [HWP]

Страницы:  1

Ответить
Автор
Сообщение

Страник 2.0

Стаж: 7 лет 11 месяцев

Сообщений: 1062

Страник 2.0 · 14-Ноя-16 12:50 (2 года 1 месяц назад, ред. 23-Ноя-16 10:57)

Сказание о принцессе Кагуя / Kaguya-hime no Monogatari / The Tale of the Princess Kaguya / かぐや姫の物語


Страна: Япония
Год выпуска: 2013 г.
Жанр: Драма, сказка
Тип: Movie
Продолжительность: 137 мин.
Режиссер: Исао Такахата
Студия: Studio GHIBLI
Роли озвучивали : Хлоя Грейс Морец, Джеймс Каан, Мэри Стинберген, Даррен Крисс, Люси Лью, Бо Бриджес, Джеймс Марсден, Оливер Платт, Хинден Уолш, Дин Кэйн


Описание : В стародавние времена жил один резчик бамбука. Бродил он по горам, рубил бамбук и мастерил из него всякую всячину. Имя его было Сануки-но Мияцуко. Однажды в глубине чащи увидел он, как из стебля бамбука сияние льётся. Изумился старик, подошёл поближе. А там сияет ярким светом дитя – прекрасная девочка, лунная принцесса. Взял он её бережно и отнёс домой. А как подросла она чуть, нарекли её именем Кагуя...
Информационные ссылки: КиноПоиск | World Art | AniDB | MAL

Автор рипа и релиза : Страник 2.0
Качество: BDRip (исходник: Blu-ray, спасибо burnin-snikers)
Тип релиза: Без хардсаба
Формат видео: AVI
Наличие линковки: Нет
Видео: XviD, 720x390 (1.85:1), 1297 Кбит/с, 23.976 fps, 8bit
Аудио 1: Русский, AC3, 384 Кбит/с, 48.0 Hz, 6 ch (в составе контейнера) Многоголосая [Омикрон]
Аудио 2: Японский, AC3, 384 Кбит/с, 48.0 Hz, 6 ch (в составе контейнера)
Субтитры (srt): Русские [Студия GHIBLI] [Алиса Томина при участии Масатаки Хикиты, Алисы Ку, Валентины Самсонович, Игоря Кириллина, Александры Вебер, Дины Валиевой, Виктории Васильевой, April O.] (внешним файлом)
Субтитры (srt): Русские [BurniN∙SnikerS] полные+форсированные на стихи и песни (внешним файлом)
Субтитры (srt): Русские [YakuSub Studio] [Little Devil, Helge, Nika_Elrik, SeshaRim] (внешним файлом)
Субтитры (srt): Английские [Studio GHIBLI] (внешним файлом)





Скриншоты
MediaInfo
General
Complete name : E:/Torrent_2/Kaguya-hime no Monogatari (2013, XviD BDRip, RUS JAP+SUB) [Stranik 2.0]/Kaguya-hime no Monogatari (2013, XviD BDRip, RUS JAP+SUB) [Stranik 2.0].avi
Format : AVI
Format/Info : Audio Video Interleave
Format profile : OpenDML
File size : 2.00 GiB
Duration : 2h 17mn
Overall bit rate : 2 083 Kbps
Writing application : VirtualDubMod 1.5.10.3 (build 2550/release)
Writing library : VirtualDubMod build 2550/release
Video #0
ID : 0
Format : MPEG-4 Visual
Format profile : Advanced [email protected]
Format settings, BVOP : 2
Format settings, QPel : No
Format settings, GMC : No warppoints
Format settings, Matrix : Custom
Codec ID : XVID
Codec ID/Hint : XviD
Duration : 2h 17mn
Bit rate : 1 297 Kbps
Width : 720 pixels
Height : 390 pixels
Display aspect ratio : 1.85:1
Frame rate : 23.976 fps
Color space : YUV
Chroma subsampling : 4:2:0
Bit depth : 8 bits
Scan type : Progressive
Compression mode : Lossy
Bits/(Pixel*Frame) : 0.193
Stream size : 1.24 GiB (62%)
Writing library : XviD 67
Audio #1
ID : 1
Format : AC-3
Format/Info : Audio Coding 3
Mode extension : CM (complete main)
Format settings, Endianness : Big
Codec ID : 2000
Duration : 2h 17mn
Bit rate mode : Constant
Bit rate : 384 Kbps
Channel(s) : 6 channels
Channel positions : Front: L C R, Side: L R, LFE
Sampling rate : 48.0 KHz
Bit depth : 16 bits
Compression mode : Lossy
Stream size : 377 MiB (18%)
Alignment : Split accross interleaves
Interleave, duration : 42 ms (1.00 video frame)
Interleave, preload duration : 500 ms
Audio #2
ID : 2
Format : AC-3
Format/Info : Audio Coding 3
Mode extension : CM (complete main)
Format settings, Endianness : Big
Codec ID : 2000
Duration : 2h 17mn
Bit rate mode : Constant
Bit rate : 384 Kbps
Channel(s) : 6 channels
Channel positions : Front: L C R, Side: L R, LFE
Sampling rate : 48.0 KHz
Bit depth : 16 bits
Compression mode : Lossy
Stream size : 377 MiB (18%)
Alignment : Split accross interleaves
Interleave, duration : 42 ms (1.00 video frame)
Interleave, preload duration : 500 ms

Моя максимальная скорость отдачи 100КБ/c
Раздаю с 7:00 до 00:00 по Москве

Download
Для скачивания .torrent файлов необходима регистрация
Сайт не распространяет и не хранит электронные версии произведений, а лишь предоставляет доступ к создаваемому пользователями каталогу ссылок на торрент-файлы, которые содержат только списки хеш-сумм
[Профиль]  [ЛС] 

Rumiko

VIP (Заслуженный)

Стаж: 10 лет 11 месяцев

Сообщений: 4134

Rumiko · 15-Ноя-16 23:21 (спустя 1 день 10 часов)

[Цитировать] 

Цитата:
BurniN∙SnikerS
в названии папки запрещенный символ(выделен красным) - надо поправить и перезалить
[Профиль]  [ЛС] 

Страник 2.0

Стаж: 7 лет 11 месяцев

Сообщений: 1062

Страник 2.0 · 16-Ноя-16 12:41 (спустя 13 часов, ред. 16-Ноя-16 12:41)

[Цитировать] 

Rumiko писал(а):
71831008
Цитата:
BurniN∙SnikerS
в названии папки запрещенный символ(выделен красным) - надо поправить и перезалить
Иправлено.
Торент перезалит: убран символ из названия папки "BurniN∙SnikerS", добавлены сабы от YakuSub Studio
[Профиль]  [ЛС] 

nilmarK

Стаж: 8 лет 9 месяцев

Сообщений: 44


nilmarK · 30-Дек-17 19:47 (спустя 1 год 1 месяц)

[Цитировать] 

Очень красивый мультфильм. Великолепно нарисован.
[Профиль]  [ЛС] 

fatts

Стаж: 5 лет 3 месяца

Сообщений: 170

fatts · 12-Ноя-18 10:22 (спустя 10 месяцев, ред. 12-Ноя-18 10:22)

[Цитировать] 

Правильный мульт: лунные Небожители сошли на грешную Землю под аккомпанемент нашей расеянской Камаринской)))
[Профиль]  [ЛС] 
 
Ответить
Loading...
Error