Озарк / Ozark / Сезон: 2 / Серии: 1-10 из 10 (Эндрю Бернштейн, Эллен Кёрас, Дэниэл Сакхайм) [2018, США, триллер, драма, криминал, WEBRip] MVO (Jaskier) + Original

Страницы:  1

Ответить
Автор
Сообщение

oqlpo

Стаж: 1 год 2 месяца

Сообщений: 247


oqlpo · 14-Сен-18 13:53 (1 месяц 1 день назад)

Озарк / Ozark
Год выпуска: 2018
Страна: США
Жанр: триллер, драма, криминал
Продолжительность: ~ 00:55:00
Перевод: Профессиональный (многоголосый закадровый) | Jaskier
Режиссёр: Эндрю Бернштейн, Эллен Кёрас, Дэниэл Сакхайм
В ролях: Джейсон Бейтмен, Лора Линни, София Хьюблиц, Джейсон Батлер Харнер, Джулия Гарнер, Энтони Коллинс, Скайлар Гертнер, Джордана Спиро, Кристофер Джеймс Бэйкер, Марк Менчака, Лиза Эмери, Питер Муллан, Эсай Моралес, Бетани Энн Линд
Описание: Финансовый консультант Марти Бёрд вместе с женой Вэнди и остальными членами семьи вынужден переехать из престижного предместья Чикаго в курортный городок Озарк штата Миссури. К неожиданному переезду главного героя вынудили крупные долги, и на новом месте он надеется поправить своё финансовое положение.

Присутствует ненормативная лексика
Качество: WEBRip
Формат: AVI
Видео: XviD, ~ 1400 kbps, 704x352, 23.976 fps
Аудио 1: MP3, 48,0 КГц, 2 ch, 128 kbps - RUS
Аудио 2: MP3, 48,0 КГц, 2 ch, 128 kbps - ENG
Субтитры: отсутствуют
Реклама: аудио, два раза в начале и в конце по 13 секунд
Ссылка на предыдущие и альтернативные раздачи
MediaInfo
Код:
Общее
Полное имя                               : V:\arhiv\OZARK. Season 2 (WEB-DL l 400p l JASKiER)\Ozark.S02E01.400p.JASKiER.avi
Формат                                   : AVI
Формат/Информация                        : Audio Video Interleave
Размер файла                             : 724 Мбайт
Продолжительность                        : 1 ч. 0 м.
Общий поток                              : 1673 Кбит/сек
Программа кодирования                    : VirtualDubMod 1.5.10.3 | www.virtualdub-fr.org || (build 2550/release)
Библиотека кодирования                   : VirtualDubMod build 2550/release
Видео
Идентификатор                            : 0
Формат                                   : MPEG-4 Visual
Профиль формата                          : Advanced [email protected]
Параметр BVOP формата                    : 2
Параметр QPel формата                    : Нет
Параметр GMC формата                     : Без точки перехода
Параметр матрицы формата                 : Выборочная
Идентификатор кодека                     : XVID
Идентификатор кодека/Подсказка           : XviD
Продолжительность                        : 1 ч. 0 м.
Битрейт                                  : 1403 Кбит/сек
Ширина                                   : 704 пикселя
Высота                                   : 352 пикселя
Соотношение сторон                       : 2,000
Частота кадров                           : 23,976 (23976/1000) кадра/сек
Цветовое пространство                    : YUV
Субдискретизация насыщенности            : 4:2:0
Битовая глубина                          : 8 бит
Тип развёртки                            : Прогрессивная
Метод сжатия                             : С потерями
Бит/(Пиксели*Кадры)                      : 0.236
Размер потока                            : 608 Мбайт (84%)
Библиотека кодирования                   : XviD 73
Аудио #1
Идентификатор                            : 1
Формат                                   : MPEG Audio
Версия формата                           : Version 1
Профиль формата                          : Layer 3
Режим                                    : Joint stereo
Расширение режима                        : MS Stereo
Идентификатор кодека                     : 55
Идентификатор кодека/Подсказка           : MP3
Продолжительность                        : 1 ч. 0 м.
Вид битрейта                             : Постоянный
Битрейт                                  : 128 Кбит/сек
Каналы                                   : 2 канала
Частота                                  : 48,0 КГц
Метод сжатия                             : С потерями
Размер потока                            : 55,4 Мбайт (8%)
Выравнивание                             : Соединение по промежуткам
Продолжительность промежутка             : 42  мс. (1,00 видеокадр)
Время предзагрузки промежутка            : 504  мс.
Аудио #2
Идентификатор                            : 2
Формат                                   : MPEG Audio
Версия формата                           : Version 1
Профиль формата                          : Layer 3
Режим                                    : Joint stereo
Расширение режима                        : MS Stereo
Идентификатор кодека                     : 55
Идентификатор кодека/Подсказка           : MP3
Продолжительность                        : 1 ч. 0 м.
Вид битрейта                             : Постоянный
Битрейт                                  : 128 Кбит/сек
Каналы                                   : 2 канала
Частота                                  : 48,0 КГц
Метод сжатия                             : С потерями
Размер потока                            : 55,4 Мбайт (8%)
Выравнивание                             : Соединение по промежуткам
Продолжительность промежутка             : 42  мс. (1,00 видеокадр)
Время предзагрузки промежутка            : 504  мс.
Скриншоты
Раздача ведется путем добавления новых серий
Когда раздача ведётся путём добавления новых серий, при каждом добавлении создётся новый торрент. Чтобы начать докачку новой серии, пользователям необходимо сделать следующее:
(1) остановить скачивание,
(2) удалить старый торрент у себя из клиента (старые серии удалять не надо),
(3) скачать новый торрент и запустить его у себя в клиенте вместо старого, при этом указать клиенту путь в старую папку, куда и должно происходить скачивание новых серий.
Ваш клиент при этом должен произвести хеширование (проверку) старой папки (если не производит сам - помогите ему сделать это), и будет докачивать только те серии, которых у вас ещё нет. Старые серии при этом не удаляются, а продолжают раздаваться!
Eсли вы уже удалили старые серии, то предотвратить повторную закачку старых серий можно, отжав галочку в соответсвующих местах при запуске нового торрента. По возможности, желательно не удалять старые серии как можно дольше, чтобы релизёр не столько продолжал раздавать старые серии, а смог сконцентрироваться на новых.
Download
Для скачивания .torrent файлов необходима регистрация
Сайт не распространяет и не хранит электронные версии произведений, а лишь предоставляет доступ к создаваемому пользователями каталогу ссылок на торрент-файлы, которые содержат только списки хеш-сумм
[Профиль]  [ЛС] 

Wentworth_Miller

Помощник модератора

Стаж: 9 лет 7 месяцев

Сообщений: 5293

Wentworth_Miller · 14-Сен-18 14:54 (спустя 1 час 1 мин.)

[Цитировать] 

Реклама
T временная
[Профиль]  [ЛС] 

Maravia

Стаж: 9 лет 2 месяца

Сообщений: 461


Maravia · 21-Сен-18 16:44 (спустя 7 дней)

[Цитировать] 

Wentworth_Miller писал(а):
75961638Реклама
T временная
А как с ненормативной лексикой? Неужели отсутствует?
[Профиль]  [ЛС] 

zabba

Стаж: 11 лет 1 месяц

Сообщений: 25

zabba · 22-Сен-18 13:42 (спустя 20 часов)

[Цитировать] 

Спасибо!
Малость муторно,но смотрибельно.
Ненормативная лексика присутствует,не особо напряжно.
[Профиль]  [ЛС] 

bot · 24-Сен-18 11:10 (спустя 1 день 21 час)

Тема была перенесена из форума Зарубежные сериалы в форум Сериалы США и Канады
Wentworth_Miller
 
 
Ответить
Loading...
Error