Родина / Homeland / Сезон 1 / Эпизод 1-12 из 12 (Говард Гордон, Алекс Ганза, Гидеон Рэфф) [2011, США, триллер, драма, детектив, BDRip] (LostFilm, NovaFilm, Пифагор) + Original

Страницы:  1

Ответить
Автор
Сообщение

BenderBEST

Стаж: 2 года 3 месяца

Сообщений: 246

BenderBEST · 13-Сен-18 18:58 (3 месяца 4 дня назад, ред. 13-Сен-18 21:01)

Родина / Homeland
Год выпуска: 2011
Страна: США
Жанр: Триллер, драма, детектив
Продолжительность: ~ 00:50:00
Перевод 1: Профессиональный (многоголосый закадровый) LostFilm
Перевод 2: Профессиональный (многоголосый закадровый) NovaFilm
Перевод 3: Профессиональный (многоголосый закадровый) Пифагор
Режиссёр: Говард Гордон, Алекс Ганза, Гидеон Рэфф
В ролях: Клэр Дэйнс, Дамиан Льюис, Мэнди Пэтинкин, Морена Бэккарин, Дэвид Хэйрвуд, Диего Клэттенхофф и др.
Описание: В центре сюжета находятся сержант морской пехоты ВМФ США Николас Броди, вернувшийся домой после восьми лет отсутствия без вести в Ираке, и Кэрри Мэтисон, офицер ЦРУ, которая подозревает его в причастности к подготовке террористической атаки на Америку.
Релиз:
Ссылка на предыдущие и альтернативные раздачи
Сэмпл

Исходник: Homeland S01 1080p BluRay REMUX AVC DTS-HD MA 5.1-EPSiLON
Качество: BDRip
Контейнер: Avi
Видео: 720x400 (1.80:1), 23.976 fps, XviD build 65 ~2000 kbps avg, 0.290 bit/pixel
Аудио 1: Rus: 48 kHz, AC3 Dolby Digital, 3/2 (L,C,R,l,r) + LFE ch, ~384.00 kbps avg | LostFilm
Аудио 2: Rus: 48 kHz, AC3 Dolby Digital, 3/2 (L,C,R,l,r) + LFE ch, ~384.00 kbps avg | NovaFilm
Аудио 3: Rus: 48 kHz, AC3, 2/0 (L,R) ch, ~192.00 kbps avg | Пифагор
Аудио 4: Eng: 48 kHz, AC3 Dolby Digital, 3/2 (L,C,R,l,r) + LFE ch, ~384.00 kbps avg | Original
Субтитры: Нет
Реклама: Нет
Релиз
Исходник: by vlaluk
Рип: KURT
За восстановление раздачи спасибо Cибирский казак
MediaInfo
Complete name : D:\Homeland.S01.CasStudio\Homeland.S01E01.CasStudio.avi
Format : AVI
Format/Info : Audio Video Interleave
File size : 1.30 GiB
Duration : 55 min 19 s
Overall bit rate : 3 365 kb/s
Writing application : VirtualDubMod 1.5.10.2 (build 2542/release)
Writing library : VirtualDubMod build 2542/release
Video
ID : 0
Format : MPEG-4 Visual
Format profile : Advanced [email protected]
Format settings : BVOP1
Format settings, BVOP : 1
Format settings, QPel : No
Format settings, GMC : No warppoints
Format settings, Matrix : Default (MPEG)
Codec ID : XVID
Codec ID/Hint : XviD
Duration : 55 min 19 s
Bit rate : 1 998 kb/s
Width : 720 pixels
Height : 400 pixels
Display aspect ratio : 16:9
Frame rate : 23.976 (24000/1001) FPS
Color space : YUV
Chroma subsampling : 4:2:0
Bit depth : 8 bits
Scan type : Progressive
Compression mode : Lossy
Bits/(Pixel*Frame) : 0.289
Stream size : 791 MiB (59%)
Writing library : XviD 65
Audio #1
ID : 1
Format : AC-3
Format/Info : Audio Coding 3
Format settings, Endianness : Big
Codec ID : 2000
Duration : 55 min 19 s
Bit rate mode : Constant
Bit rate : 384 kb/s
Channel(s) : 6 channels
Channel positions : Front: L C R, Side: L R, LFE
Sampling rate : 48.0 kHz
Frame rate : 31.250 FPS (1536 SPF)
Bit depth : 16 bits
Compression mode : Lossy
Stream size : 152 MiB (11%)
Alignment : Split accross interleaves
Interleave, duration : 42 ms (1.00 video frame)
Interleave, preload duratio : 500 ms
Service kind : Complete Main
Audio #2
ID : 2
Format : AC-3
Format/Info : Audio Coding 3
Format settings, Endianness : Big
Codec ID : 2000
Duration : 55 min 19 s
Bit rate mode : Constant
Bit rate : 384 kb/s
Channel(s) : 6 channels
Channel positions : Front: L C R, Side: L R, LFE
Sampling rate : 48.0 kHz
Frame rate : 31.250 FPS (1536 SPF)
Bit depth : 16 bits
Compression mode : Lossy
Stream size : 152 MiB (11%)
Alignment : Split accross interleaves
Interleave, duration : 42 ms (1.00 video frame)
Interleave, preload duratio : 500 ms
Service kind : Complete Main
Audio #3
ID : 3
Format : AC-3
Format/Info : Audio Coding 3
Format settings, Endianness : Big
Codec ID : 2000
Duration : 55 min 19 s
Bit rate mode : Constant
Bit rate : 192 kb/s
Channel(s) : 2 channels
Channel positions : Front: L R
Sampling rate : 48.0 kHz
Frame rate : 31.250 FPS (1536 SPF)
Bit depth : 16 bits
Compression mode : Lossy
Stream size : 76.0 MiB (6%)
Alignment : Split accross interleaves
Interleave, duration : 42 ms (1.00 video frame)
Interleave, preload duratio : 500 ms
Service kind : Complete Main
Audio #4
ID : 4
Format : AC-3
Format/Info : Audio Coding 3
Format settings, Endianness : Big
Codec ID : 2000
Duration : 55 min 19 s
Bit rate mode : Constant
Bit rate : 384 kb/s
Channel(s) : 6 channels
Channel positions : Front: L C R, Side: L R, LFE
Sampling rate : 48.0 kHz
Frame rate : 31.250 FPS (1536 SPF)
Bit depth : 16 bits
Compression mode : Lossy
Stream size : 152 MiB (11%)
Alignment : Split accross interleaves
Interleave, duration : 42 ms (1.00 video frame)
Interleave, preload duratio : 500 ms
Service kind : Complete Main
Скриншоты
Download
Для скачивания .torrent файлов необходима регистрация
Сайт не распространяет и не хранит электронные версии произведений, а лишь предоставляет доступ к создаваемому пользователями каталогу ссылок на торрент-файлы, которые содержат только списки хеш-сумм
[Профиль]  [ЛС] 

Celta88

Moderator

Стаж: 9 лет 7 месяцев

Сообщений: 4846

Celta88 · 13-Сен-18 20:08 (спустя 1 час 9 мин.)

[Цитировать] 

BenderBEST
Укажите исходник, пожалуйста
Цитата:
При раздаче материала качества BDRip, указание исходника, с которого был сделан рип, обязательно! При этом об исходнике должна быть указана вся информация, необходимая для его однозначного определения: либо ссылка на раздачу этого исходника на трекере rutracker.org, либо в текстовом виде: носитель (BD, BDRemux) и имя релизера/релиз-группы/ресурса, с которого исходник был взят
Правила раздела ЗАРУБЕЖНЫЕ СЕРИАЛЫ
? недооформлено
[Профиль]  [ЛС] 

Celta88

Moderator

Стаж: 9 лет 7 месяцев

Сообщений: 4846

Celta88 · 13-Сен-18 21:45 (спустя 1 час 37 мин.)

[Цитировать] 



проверено
[Профиль]  [ЛС] 

bot · 23-Сен-18 00:46 (спустя 9 дней)

Тема была перенесена из форума Зарубежные сериалы в форум Сериалы США и Канады
Wentworth_Miller
 

Openbox7200

Стаж: 9 лет 10 месяцев

Сообщений: 181


Openbox7200 · 30-Окт-18 20:16 (спустя 1 месяц 16 дней)

[Цитировать] 

а какая озвучка считается официальной?
[Профиль]  [ЛС] 

Bаdmotherfucker

Стаж: 4 года 9 месяцев

Сообщений: 591

Bаdmotherfucker · 31-Окт-18 08:56 (спустя 12 часов)

[Цитировать] 

Openbox7200 писал(а):
76228695а какая озвучка считается официальной?
Пифагор.
[Профиль]  [ЛС] 

Openbox7200

Стаж: 9 лет 10 месяцев

Сообщений: 181


Openbox7200 · 04-Ноя-18 13:05 (спустя 4 дня)

[Цитировать] 

Bаdmotherfucker
Спасибо.
Не смотрите в озвучке Лоста. Постоянные ляпы с переводом, передачей эмоций, детей озвучивают взрослые голоса и т.д. и т.п.
[Профиль]  [ЛС] 
 
Ответить
Loading...
Error