Зачарованные / Charmed / Сезон: 01 / Серии: 0-0 из 22 (Брюс Сет Грин) [1998, США, фэнтази, мистика, драма, DVDRip] VO + Original

Страницы:  1

Ответить
Автор
Сообщение

Rey Gleeson

Стаж: 11 лет 3 месяца

Сообщений: 505

Rey Gleeson · 18-Дек-16 00:40 (1 год 11 месяцев назад, ред. 24-Мар-17 19:33)

Зачарованные / Charmed /
оригинальная пилотная серия / original unaired pilot

Год выпуска: 1998
Страна: США
Жанр: фэнтази, мистика, драма
Продолжительность: 00:32:32
Перевод: Любительский (одноголосый закадровый)
Режиссёр: Брюс Сет Грин
В ролях: Шэннен Доэрти / Shannen Doherty, Холи Мэри Комбс / Holly Marie Combs, Лори Ром / Lori Rom, Крис Бойд / Chris Boyd
Описание: Оригинальная (не показанная по тв) пилотная серия "Зачарованных" с Лори Ром и Крисом Бойдом. Изначально планировался 30- минутный формат вместо 40- минутного, многие сцены либо отличаются ракурсом съемки, либо локациями, либо кардинально другие, по сравнению с s01e01. Так же есть сцены, которые отсутствуют в s01e01, равно как и в s01e01 есть сцены, которые отсутствуют в данной серии.
Ситуация с двумя первыми сериями возникла из- за ухода Лори Ром- пришлось все начинать еще раз.
Доп. информация: Сестры Прю и Пайпер живут в доме, завещанном им родителями. В один прекрасный день, точнее, вечер, к ним приезжает третья сестра- Фиби. И вот с этого момента жизнь переворачивается с ног на голову. Сестры узнают семейные тайны, одна из которых состоит в том, что сестры- потомственные ведьмы. И теперь отважным девушкам предстоит бороться со злом, спасать невинных с помощью магии.
Ссылка на предыдущие и альтернативные раздачи: http://rutracker.org/forum/tracker.php?f=189,2366&nm=charmed
Сэмпл: http://multi-up.com/1134281
Качество: DVDRip
Формат: AVI
Видео: XviD, 640x480 (1.33:1), 23.976 fps, 1 670 Kbps
Аудио: русский, одноголосый любительский, mp3, 48.0 KHz, 2 channels, 160 Kbps
Аудио 2: английский, оригинальный, ac3, 48.0 KHz, 2 channels, 192 Kbps
Субтитры: Русские, Английские, Soft sub .srt
Реклама:
Отсутствует
Список серий
s01e00
MediaInfo
General
Complete name : Charmed.1x00.Unaired.Pilot.DVDRip.Rus-Eng.avi
Format : AVI
Format/Info : Audio Video Interleave
File size : 474 MiB
Duration : 32mn 32s
Overall bit rate : 2 036 Kbps
Writing application : VirtualDubMod 1.5.10.2 (build 2540/release)
Writing library : VirtualDubMod build 2540/release
Video
ID : 0
Format : MPEG-4 Visual
Format profile : Advanced [email protected]
Format settings, BVOP : Yes
Format settings, QPel : No
Format settings, GMC : No warppoints
Format settings, Matrix : Default (H.263)
Codec ID : XVID
Codec ID/Hint : XviD
Duration : 32mn 32s
Bit rate : 1 670 Kbps
Width : 640 pixels
Height : 480 pixels
Display aspect ratio : 4:3
Frame rate : 23.976 fps
Color space : YUV
Chroma subsampling : 4:2:0
Bit depth : 8 bits
Scan type : Progressive
Bits/(Pixel*Frame) : 0.227
Stream size : 389 MiB (82%)
Writing library : XviD 1.2.1 (UTC 2008-12-04)
Audio #1
ID : 1
Format : MPEG Audio
Format version : Version 1
Format profile : Layer 3
Codec ID : 55
Codec ID/Hint : MP3
Duration : 32mn 32s
Bit rate mode : Constant
Bit rate : 160 Kbps
Channel(s) : 2 channels
Sampling rate : 48.0 KHz
Stream size : 37.2 MiB (8%)
Alignment : Aligned on interleaves
Interleave, duration : 42 ms (1.00 video frame)
Interleave, preload duration : 504 ms
Audio #2
ID : 2
Format : AC-3
Format/Info : Audio Coding 3
Mode extension : CM (complete main)
Codec ID : 2000
Duration : 32mn 32s
Bit rate mode : Constant
Bit rate : 192 Kbps
Channel(s) : 2 channels
Channel positions : Front: L R
Sampling rate : 48.0 KHz
Stream size : 44.7 MiB (9%)
Alignment : Split accross interleaves
Interleave, duration : 42 ms (1.00 video frame)
Interleave, preload duration : 500 ms
Скриншоты
05.01.2017
Звук заменен на более качественный. Видео тоже заменено. Перекачайте торрент.
хеш
DC1D52898078954316A7DD0AAD49C45E83086A2C
как скачать, зная хеш
если ваш клиент не может качать по магнет- ссылкам, возьмите
этот,
с его помощью можно получить .torrent файл из магнет- ссылки
и еще не забудьте включить dht,
как это сделать в µtorrent
Download
Для скачивания .torrent файлов необходима регистрация
Сайт не распространяет и не хранит электронные версии произведений, а лишь предоставляет доступ к создаваемому пользователями каталогу ссылок на торрент-файлы, которые содержат только списки хеш-сумм
[Профиль]  [ЛС] 

watchtower2014

Стаж: 4 года 6 месяцев

Сообщений: 733

watchtower2014 · 05-Мар-17 02:54 (спустя 2 месяца 18 дней)

[Цитировать] 

скиньте англ сабы пожалуйста
[Профиль]  [ЛС] 

Rey Gleeson

Стаж: 11 лет 3 месяца

Сообщений: 505

Rey Gleeson · 07-Мар-17 15:33 (спустя 2 дня 12 часов)

[Цитировать] 

watchtower2014 писал(а):
72618410скиньте англ сабы пожалуйста
Они есть в раздаче.
Как закачать отдельный файл из торрента или докачать ранее пропущенные файлы торрента.
[Профиль]  [ЛС] 

логи3

Стаж: 8 лет 6 месяцев

Сообщений: 2


логи3 · 25-Июл-17 16:09 (спустя 4 месяца 18 дней)

[Цитировать] 

а я то все думала,почему на моей закладке вместо Алисы Милоно другая баба!
[Профиль]  [ЛС] 

лёха20141989

Стаж: 5 лет 6 месяцев

Сообщений: 217


лёха20141989 · 26-Июл-18 10:24 (спустя 1 год)

[Цитировать] 

правельно что она ушла. лучше стало.
[Профиль]  [ЛС] 

kate london

Стаж: 10 лет 3 месяца

Сообщений: 1784

kate london · 05-Авг-18 01:16 (спустя 9 дней, ред. 05-Авг-18 01:16)

[Цитировать] 

Лори Ром интересная. Это не совсем её роль, но играет она хорошо. Фиби в её исполнении кажется более рассудительной и спокойной.
Актер, играющий Трюдо, тоже любопытный, но совсем непривычный.
Спасибо за оригинальную дорожку.
[Профиль]  [ЛС] 

Rey Gleeson

Стаж: 11 лет 3 месяца

Сообщений: 505

Rey Gleeson · 05-Авг-18 22:58 (спустя 21 час)

[Цитировать] 

kate london писал(а):
75765345Лори Ром интересная. Это не совсем её роль, но играет она хорошо. Фиби в её исполнении кажется более рассудительной и спокойной.
Актер, играющий Трюдо, тоже любопытный, но совсем непривычный.
Спасибо за оригинальную дорожку.
Фиби в ее исполнении совершенно другая, гораздо лучше Алиссы. Алисса мне никогда не нравилась, а вот Лори- суперская.
[Профиль]  [ЛС] 

kate london

Стаж: 10 лет 3 месяца

Сообщений: 1784

kate london · 06-Авг-18 01:38 (спустя 2 часа 39 мин., ред. 06-Авг-18 01:38)

[Цитировать] 

Rey Gleeson
Да, я бы тоже посмотрела на такую Фиби.
[Профиль]  [ЛС] 

лёха20141989

Стаж: 5 лет 6 месяцев

Сообщений: 217


лёха20141989 · 09-Сен-18 09:38 (спустя 1 месяц 3 дня)

[Цитировать] 

Rey Gleeson писал(а):
75770129
kate london писал(а):
75765345Лори Ром интересная. Это не совсем её роль, но играет она хорошо. Фиби в её исполнении кажется более рассудительной и спокойной.
Актер, играющий Трюдо, тоже любопытный, но совсем непривычный.
Спасибо за оригинальную дорожку.
Фиби в ее исполнении совершенно другая, гораздо лучше Алиссы. Алисса мне никогда не нравилась, а вот Лори- суперская.
ноунейм лучше? она сухая не смог нормально пилот посмотреть.нет яркости бледная как поганка.
[Профиль]  [ЛС] 

kate london

Стаж: 10 лет 3 месяца

Сообщений: 1784

kate london · 15-Окт-18 02:01 (спустя 1 месяц 5 дней)

[Цитировать] 

лёха20141989
Она не лучше, но другая, местами привлекательнее (характером), чем Милано. Выше ведь написано: "не совсем её роль".
[Профиль]  [ЛС] 
 
Ответить
Loading...
Error