Согласие / Qubool Hai / Серии: 530-774 из ?? (Gul Khan, Nissar Khan) [2012-2015, Индия, драма, мелодрама, TVRip]

Страницы:  1

Ответить
Автор
Сообщение

casebug

Стаж: 7 лет 1 месяц

Сообщений: 6


casebug · 01-Май-17 18:40 (1 год 5 месяцев назад)

Согласие / Qubool Hai
Год выпуска: 2012-2015
Страна: Индия
Производство: Hrishikesh Gandhi
Жанр: драма, мелодрама
Серии (количество): 530-774 из ??
Продолжительность: 00:21:00
Перевод: полное дублирование
Субтитры: отсутствуют
Режиссёр: Gul Khan, Nissar Khan
В ролях: Каран Сингх Гровер, Сурбхи Джиоти, Ришабх Синха, Викрант Массей, Амрапали Гупта, Шалини Капур, Алка Каушал и др.
Описание: История о путешествии жизни, ее испытаниях и невзгодах, принятии или неприятии судьбы. О том, что Бог дает нам силы чтобы изменить то, что мы можем и мужество чтобы принять то, что изменить не в силах. История о людях, для которых нет ничего важнее религии и любви. История двух братьев - Аяна и Асада, которые разделены волей обстоятельств, но едины душой. История девушки Зои ненавидевшей лицемерие в семейных отношениях, которая возьмется объеденить две враждующие семьи...
Ссылка на предыдущие и альтернативные раздачи: http://rutracker.org/forum/tracker.php?nm=%D0%A1%D0%BE%D0%B3%D0%BB%D0%B0%D1%81%D0%B8%D0%B5%20%2F%20Q
Качество: TVRip
Формат: MPEG
Видео кодек: AVC
Аудио кодек: AAC
Видео: 640x360, 25 fps, MPEG-4 ~1024 kbps avg, 0.178 bit/pixel
Аудио: 44 kHz, AAC 2 ch, ~64.00 kbps avg
MI
Формат : MPEG-4
Профиль формата : Base Media
Идентификатор кодека : isom (isom/iso2/avc1/mp41)
Размер файла : 162 Мбайт
Продолжительность : 20 м. 44 с.
Общий поток : 1090 Кбит/сек
Программа кодирования : Lavf55.48.100
Видео
Идентификатор : 1
Формат : AVC
Формат/Информация : Advanced Video Codec
Профиль формата : [email protected]
Параметр CABAC формата : Нет
Параметр ReFrames формата : 5 кадров
Параметр GOP формата : M=1, N=25
Идентификатор кодека : avc1
Идентификатор кодека/Информация : Advanced Video Coding
Продолжительность : 20 м. 44 с.
Битрейт : 1024 Кбит/сек
Ширина : 640 пикселей
Высота : 360 пикселей
Соотношение сторон : 16:9
Режим частоты кадров : Постоянный
Частота кадров : 25,000 кадров/сек
Цветовое пространство : YUV
Субдискретизация насыщенности : 4:2:0
Битовая глубина : 8 бит
Тип развёртки : Прогрессивная
Бит/(Пиксели*Кадры) : 0.178
Размер потока : 151 Мбайт (94%)
Библиотека кодирования : x264 core 142 r2455 021c0dc
Настройки программы : cabac=0 / ref=5 / deblock=1:0:0 / analyse=0x1:0x111 / me=umh / subme=8 / psy=1 / psy_rd=1.00:0.00 / mixed_ref=1 / me_range=16 / chroma_me=1 / trellis=1 / 8x8dct=0 / cqm=0 / deadzone=21,11 / fast_pskip=1 / chroma_qp_offset=-2 / threads=12 / lookahead_threads=2 / sliced_threads=0 / nr=0 / decimate=1 / interlaced=0 / bluray_compat=0 / constrained_intra=0 / bframes=0 / weightp=0 / keyint=25 / keyint_min=2 / scenecut=40 / intra_refresh=0 / rc_lookahead=25 / rc=abr / mbtree=1 / bitrate=1024 / ratetol=1.0 / qcomp=0.60 / qpmin=0 / qpmax=69 / qpstep=4 / ip_ratio=1.40 / aq=1:1.00
Язык : English
Аудио
Идентификатор : 2
Формат : AAC
Формат/Информация : Advanced Audio Codec
Профиль формата : LC
Идентификатор кодека : 40
Продолжительность : 20 м. 44 с.
Duration_LastFrame : -1 мс.
Вид битрейта : Постоянный
Битрейт : 64,3 Кбит/сек
Каналы : 2 канала
Расположение каналов : Front: L R
Частота : 44,1 КГц
Частота кадров : 43,066 кадра/сек (1024 spf)
Метод сжатия : С потерями
Размер потока : 9,53 Мбайт (6%)
Default : Да
AlternateGroup/String : 1
Скриншоты


Download
Для скачивания .torrent файлов необходима регистрация
Сайт не распространяет и не хранит электронные версии произведений, а лишь предоставляет доступ к создаваемому пользователями каталогу ссылок на торрент-файлы, которые содержат только списки хеш-сумм
[Профиль]  [ЛС] 

fedia2012

Стаж: 7 лет 9 месяцев

Сообщений: 18

fedia2012 · 03-Июн-17 12:31 (спустя 1 месяц 1 день)

[Цитировать] 

Очень слабая скорость .если можно сделайте по быстрей.Сериал хороший но не могу скачать .
[Профиль]  [ЛС] 

fedia2012

Стаж: 7 лет 9 месяцев

Сообщений: 18

fedia2012 · 15-Авг-17 19:10 (спустя 2 месяца 12 дней)

[Цитировать] 

Дайте скачать .не могу скачать ...А так хочется посмотреть чем дело закончиться ...Очень прошу .Раздающему дать возможности скачать .Весь нет облазил не где нету только здесь ...по 774 серию .
[Профиль]  [ЛС] 

люся3030

Стаж: 7 лет 1 месяц

Сообщений: 238


люся3030 · 05-Дек-17 01:04 (спустя 3 месяца 20 дней)

[Цитировать] 

уважаемый раздающий продолжение будет? спасибо
[Профиль]  [ЛС] 

vikin28

Стаж: 8 лет 11 месяцев

Сообщений: 200

vikin28 · 25-Июл-18 09:37 (спустя 7 месяцев)

[Цитировать] 

Здравствуйте! Будет ли продолжение этого сериала? Чтоб имело смысл качать с 1-774 серии. Я видела в интернете там написано что всего серий 850. Просто по телевизору увидела одну серию,но это оказалось продолжение сериала(об этом прочла в интернете). Никогда не смотрела индийские сериалы,а этот прямо в душу запал. Пол час посмотрела и запала на этот сериал. Очень хочется скачать сериал. Пожалуйста подскажите автор раздачи вы будете выкладывать продолжение? Спасибо.
[Профиль]  [ЛС] 
 
Ответить
Loading...
Error