(Disco, Soul, Funk) [LP] [32/192] Earth, Wind & Fire - Raise! [Mastersound Audiophile Pressing] - 1981, WavPack (image+.cue)

Страницы:  1

Ответить
Автор
Сообщение

bezbazara

Стаж: 3 года 7 месяцев

Сообщений: 1907

bezbazara · 09-Дек-16 21:18 (1 год 6 месяцев назад, ред. 21-Фев-18 23:33)

Earth, Wind & Fire - Raise! [Mastersound Audiophile Pressing]
Жанр: Disco, Soul, Funk
Носитель: LP
Год выпуска: 1981
Лейбл: Columbia # HC 47548
Страна-производитель: USA
Аудио кодек: WavPack
Тип рипа: image+.cue
Формат записи: 32/192
Формат раздачи: 32/192
Продолжительность: 00:38:24
Треклист:
A1. Let's Groove 5:40
A2. Lady Sun 3:41
A3. My Love 4:36
A4. Evolution Orange 4:39
B1a. Kalimba Tree 0:25
B1b. You Are A Winner 4:09
B2. I've Had Enough 4:34
B3. Wanna Be With You 4:35
B4. The Changing Times 5:36
Правильный cue.
REM GENRE "Soul, Funk, Disco"
REM DATE 1978
REM COMMENT "Rip by bezbazara"
PERFORMER "Earth, Wind & Fire"
TITLE "Raise! (USA, Columbia HC 47548)"
FILE "Earth, Wind & Fire - Raise!.wv" WAVE
TRACK 01 AUDIO
TITLE "Let's Groove"
INDEX 01 00:00:00
TRACK 02 AUDIO
TITLE "Lady Sun"
INDEX 01 05:39:66
TRACK 03 AUDIO
TITLE "My Love"
INDEX 01 09:20:39
TRACK 04 AUDIO
TITLE "Evolution Orange"
INDEX 01 13:56:45
TRACK 05 AUDIO
TITLE "Kalimba Tree"
INDEX 01 18:36:00
TRACK 06 AUDIO
TITLE "You Are A Winner"
INDEX 01 19:02:00
TRACK 07 AUDIO
TITLE "I've Had Enough"
INDEX 01 23:11:15
TRACK 08 AUDIO
TITLE "Wanna Be With You"
INDEX 01 27:48:19
TRACK 09 AUDIO
TITLE "The Changing Times"
INDEX 01 32:43:35
Тех.данные
Источник оцифровки: Aвтором раздачи
Код класса состояния винила: Near Mint
Устройство воспроизведения: Transrotor Orfeo
Головка звукоснимателя: Lyra Kleos
Предварительный усилитель: KIVsound TP-23EF (Signature)
Межблочные кабели: Purist Audio Design Aqueous Aureus Phono Cables
АЦП: Roland Quad-Capture (UA-55)
Программа-оцифровщик: Adobe Audition CC 2015
Обработка: Нет
Спектр + АЧХ + Уровень записи
Download
Для скачивания .torrent файлов необходима регистрация
Сайт не распространяет и не хранит электронные версии произведений, а лишь предоставляет доступ к создаваемому пользователями каталогу ссылок на торрент-файлы, которые содержат только списки хеш-сумм
[Профиль]  [ЛС] 

lobashova

Стаж: 9 лет 7 месяцев

Сообщений: 6298

lobashova · 09-Дек-16 21:34 (спустя 16 мин.)

[Цитировать] 

Спасибо! Жень KIVsound да? Это же похоже на Эпидемию
[Профиль]  [ЛС] 

Dymokust

Analog Sound Club

Стаж: 6 лет 2 месяца

Сообщений: 1444

Dymokust · 09-Дек-16 21:37 (спустя 2 мин.)

[Цитировать] 

bezbazara
В нашем полку прибыло.
[Профиль]  [ЛС] 

lobashova

Стаж: 9 лет 7 месяцев

Сообщений: 6298

lobashova · 09-Дек-16 22:24 (спустя 47 мин.)

[Цитировать] 

В общем ты попал Давай весь свой Earth, Wind & Fire с этого тракта
Жень классно, что тут скажешь. Интересно послушать и с другими стилями музыки, подойдёт ли звук с этого тракта к року?
Кстати на 10 сек. I've Had Enough, надеюсь это у меня глюк
[Профиль]  [ЛС] 

nikon200

Стаж: 6 лет 6 месяцев

Сообщений: 1849

nikon200 · 09-Дек-16 22:28 (спустя 3 мин.)

[Цитировать] 

lobashova
У меня все чисто, посмотри у себя Жень.
[Профиль]  [ЛС] 

lobashova

Стаж: 9 лет 7 месяцев

Сообщений: 6298

lobashova · 09-Дек-16 22:35 (спустя 6 мин.)

[Цитировать] 

Там есть что то точно. Но это же Earth, Wind & Fire (Пинк Флойд в диско фанке). Каждый семпл слушаешь. Я не могу понять или это лёгкий щелчок или это инструмент...
[Профиль]  [ЛС] 

bezbazara

Стаж: 3 года 7 месяцев

Сообщений: 1907

bezbazara · 09-Дек-16 22:38 (спустя 2 мин.)

[Цитировать] 

nikon200
lobashova
Обратите внимание на состояние пласта, обработки ноль, просто снял рип и всё. Повезло
[Профиль]  [ЛС] 

nikon200

Стаж: 6 лет 6 месяцев

Сообщений: 1849

nikon200 · 09-Дек-16 22:42 (спустя 4 мин.)

[Цитировать] 

lobashova
Жень лёёёёёгтнкий щелкуник. Но если не вслушиваться то прокатывает нормально.
Ты бы не сказал, я и не заметил.
[Профиль]  [ЛС] 

marmalin

Стаж: 9 лет 5 месяцев

Сообщений: 2709

marmalin · 09-Дек-16 23:05 (спустя 22 мин.)

[Цитировать] 

И ты, Брут Жень, приобрел Kivsound!? Куда катицо мир?
Спасибо за рип.
[Профиль]  [ЛС] 

marmalin

Стаж: 9 лет 5 месяцев

Сообщений: 2709

marmalin · 10-Дек-16 00:49 (спустя 1 час 44 мин.)

[Цитировать] 

bezbazara
Вот и пробую, у тебя и у Димокуста.
Правда, ценника на изделия не нашел...
[Профиль]  [ЛС] 

bezbazara

Стаж: 3 года 7 месяцев

Сообщений: 1907

bezbazara · 10-Дек-16 06:01 (спустя 5 часов, ред. 01-Фев-17 00:24)

[Цитировать] 

marmalin
Ценик по сути подарок.
[Профиль]  [ЛС] 

tolyapa

Стаж: 8 лет 4 месяца

Сообщений: 414

tolyapa · 10-Дек-16 09:05 (спустя 3 часа)

[Цитировать] 

bezbazara
Евгений,спасибо!
B3. Wanna Be With You - прослушал три раза подряд,впечатлило звучание!
[Профиль]  [ЛС] 

Lurker0

Top Bonus 03* 1TB

Стаж: 10 лет 2 месяца

Сообщений: 650

Lurker0 · 10-Дек-16 11:33 (спустя 2 часа 27 мин.)

[Цитировать] 

Часть названий треков в PERFORMER ушло. Мой куй:
скрытый текст
Код:
REM GENRE "Soul, Funk, Disco"
REM DATE 1978
REM COMMENT "Rip by bezbazara"
PERFORMER "Earth, Wind & Fire"
TITLE "Raise! (USA, Columbia HC 47548)"
FILE "Earth, Wind & Fire - Raise!.wv" WAVE
  TRACK 01 AUDIO
    TITLE "Let's Groove"
    INDEX 01 00:00:00
  TRACK 02 AUDIO
    TITLE "Lady Sun"
    INDEX 01 05:39:66
  TRACK 03 AUDIO
    TITLE "My Love"
    INDEX 01 09:20:39
  TRACK 04 AUDIO
    TITLE "Evolution Orange"
    INDEX 01 13:56:45
  TRACK 05 AUDIO
    TITLE "Kalimba Tree"
    INDEX 01 18:36:00
  TRACK 06 AUDIO
    TITLE "You Are A Winner"
    INDEX 01 19:02:00
  TRACK 07 AUDIO
    TITLE "September"
    INDEX 01 23:11:15
  TRACK 08 AUDIO
    TITLE "Wanna Be With You"
    INDEX 01 27:48:19
  TRACK 09 AUDIO
    TITLE "The Changing Times"
    INDEX 01 32:43:35
[Профиль]  [ЛС] 

bezbazara

Стаж: 3 года 7 месяцев

Сообщений: 1907

bezbazara · 10-Дек-16 19:35 (спустя 8 часов)

[Цитировать] 

Lurker0
точно, почему так? вроде бы правильно делал.
[Профиль]  [ЛС] 

woudou

Стаж: 8 лет 2 месяца

Сообщений: 1104

woudou · 10-Дек-16 20:25 (спустя 50 мин., ред. 10-Дек-16 20:25)

[Цитировать] 

lobashova писал(а):
71996605В общем ты попал Давай весь свой Earth, Wind & Fire с этого тракта
было бы неплохо! даже не просто неплохо, а как бы и очень правильно.
спасибо.
[Профиль]  [ЛС] 

nikon200

Стаж: 6 лет 6 месяцев

Сообщений: 1849

nikon200 · 10-Дек-16 20:27 (спустя 1 мин.)

[Цитировать] 

bezbazara
Если это один исполнитель, смысла писать нет под каждым треком и так понятно кто есть кто. А если это сборник, тогда надо писать.
[Профиль]  [ЛС] 

woudou

Стаж: 8 лет 2 месяца

Сообщений: 1104

woudou · 10-Дек-16 22:15 (спустя 1 час 48 мин.)

[Цитировать] 

Lurker0 писал(а):
71999134Часть названий треков в PERFORMER ушло. Мой куй:
скрытый текст
Код:
REM GENRE "Soul, Funk, Disco"
REM DATE 1978
REM COMMENT "Rip by bezbazara"
PERFORMER "Earth, Wind & Fire"
TITLE "Raise! (USA, Columbia HC 47548)"
FILE "Earth, Wind & Fire - Raise!.wv" WAVE
  TRACK 01 AUDIO
    TITLE "Let's Groove"
    INDEX 01 00:00:00
  TRACK 02 AUDIO
    TITLE "Lady Sun"
    INDEX 01 05:39:66
  TRACK 03 AUDIO
    TITLE "My Love"
    INDEX 01 09:20:39
  TRACK 04 AUDIO
    TITLE "Evolution Orange"
    INDEX 01 13:56:45
  TRACK 05 AUDIO
    TITLE "Kalimba Tree"
    INDEX 01 18:36:00
  TRACK 06 AUDIO
    TITLE "You Are A Winner"
    INDEX 01 19:02:00
  TRACK 07 AUDIO
    TITLE "September"
    INDEX 01 23:11:15
  TRACK 08 AUDIO
    TITLE "Wanna Be With You"
    INDEX 01 27:48:19
  TRACK 09 AUDIO
    TITLE "The Changing Times"
    INDEX 01 32:43:35

Lurker0
, да, в .cue все перепутано насмерть, спасибо за правки.
[Профиль]  [ЛС] 

bezbazara

Стаж: 3 года 7 месяцев

Сообщений: 1907

bezbazara · 11-Дек-16 12:29 (спустя 14 часов, ред. 21-Фев-18 23:35)

[Цитировать] 

woudou
Lurker0
Да уж, с куйем какая то засада вышла, прошу у всех пардона
Очепятка, в описании раздачи правильный куй.
[Профиль]  [ЛС] 

woudou

Стаж: 8 лет 2 месяца

Сообщений: 1104

woudou · 12-Дек-16 21:11 (спустя 1 день 8 часов)

[Цитировать] 

bezbazara писал(а):
72007036woudou
Lurker0
Да уж, с куйем какая то засада вышла, прошу у всех пардона 12.12.2016 Заменил куе файл , остальное по старому, перекачиваем кому нужно
да уж ладно, ерунда, справились.
спасибо! качаем дальше. можно еще
[Профиль]  [ЛС] 

mbrsnv

Стаж: 8 лет 9 месяцев

Сообщений: 69


mbrsnv · 20-Фев-18 22:27 (спустя 1 год 2 месяца)

[Цитировать] 

Что то с куем намудрили. В этом альбоме нет трека September.
На самом деле седьмой трек I have had enough.
[Профиль]  [ЛС] 

bezbazara

Стаж: 3 года 7 месяцев

Сообщений: 1907

bezbazara · 21-Фев-18 23:34 (спустя 1 день 1 час)

[Цитировать] 

mbrsnv
Очепятка, в описании раздачи правильный куй. Прошу пардона.
[Профиль]  [ЛС] 

M.A.S.47

Стаж: 8 лет 3 месяца

Сообщений: 15


M.A.S.47 · 17-Май-18 12:03 (спустя 2 месяца 23 дня)

[Цитировать] 

Просто отличный альбом, здорово заряжает хорошим настроением с утра.
Большое спасибо за оцифровку!
[Профиль]  [ЛС] 

snakevic

Стаж: 6 лет 7 месяцев

Сообщений: 2434

snakevic · 18-Май-18 13:12 (спустя 1 день 1 час)

[Цитировать] 

bezbazara
Спасибо... хороший тональный баланс и вообще...
На СД хоть ДД и больше, но там от 200 и ниже срезано аж дб на 8 а может ещё больше... звук стеклянный и не комфортный ни разу, ну что возьмёшь...
[Профиль]  [ЛС] 
 
Ответить
Loading...
Error