Gregorian - Live! Masters of Chant: Final Chapter Tour [2016, New Age, Crossover, Gregorian chant, Blu-ray, 1080i]

:  1

CHKA1961

Moderator gray

: 10 11

: 6870

CHKA1961 · 18--16 22:21 (1 7 , . 01--16 08:10)

Gregorian - Live! Masters of Chant: Final Chapter Tour
: Germany
: New Age, Crossover, Gregorian chant
: 02:49:12
: 2016
: Ear music
: Nun heißt es Lebe wohl!
Gregorian haben das vorerst letzte Kapitel ihrer erfolgreichen Masters Of Chant-Saga mit der Tour zum Final Chapter aufgeschlagen. Ein bewegender Abschied, der für alle Fans in atemberaubenden Bildern festgehalten wurde.
Was 1999 für Produzent Frank Peterson und die Band begann, entwickelte sich rasant zu einem imposanten Siegeszug: über 10 Millionen verkaufte Alben sowie zahlreiche Gold- und Platinauszeichnungen machen Gregorian zu einem der erfolgreichsten deutschen Acts weltweit.
Zum vorerst letzten Mal sind nun die einzigartigen Interpretationen ikonischer Pop- und Rocksongs in Mönchskutte als beeindruckende Live-Dokumentation zu sehen und zu hören.
Die atemberaubende Live-Produktion, gespickt mit einer großartigen Licht- und Lasershow, Pyro-Effekten und imposanten Choreographien wird mit den kräftigen Stimmen der klassisch ausgebildeten Sänger unter Mitwirken von Amelia Brightman und Countertenor Narcis einmal mehr zu einem überwältigenden Live-Erlebnis.
Dieses spektakuläre Livedokument in Bild und Ton bildet nun den krönenden Abschluss der Masters of Chant-Reihe und hinterlässt dem Zuschauer volle 29 Hits aus über 15 Jahren Gregorian.
LIVE! Masters Of Chant - Final Chapter Tour wurde im Mai 2016 während des ersten Teils der Final Chapter Tour in Berlin aufgezeichnet und bietet beeindruckende Bilder. Ob des überwältigenden Erfolges der Tour werden weitere Termine der Final Chapter Tour Anfang 2017 stattfinden, mit denen das Kapitel endgültig geschlossen wird.
:
1. Master Of Chant
2. Still Haven't Found What I'm Looking For / Only You
3. Stay
4. Join Me
5. Lady In Black
6. Meadows Of Heaven
7. Now We Are Free
8. Strong
9. Shout
10. Cry Softly
11. Hurt
12. The Raven
13. Kiss From A Rose
14. Crying In The Rain
15. Caruso
16. One
17. World Without End
18. Born To Feel Alive
19. Hells Bells
20. Medley:
In My Life
Crazy, Crazy Nights
Good Night, Companions
21. Time To Say Goodbye
22. Gloria
23. Moment Of Peace
24. Hymn
25. Just For You
26. Sky & Sand
---------
27. World Without End (Video)
28. Gloria (Video)
29. Frozen World (Video)
30. Mistletoe And Wine (Video)
31. Masters Of Chant (Promo Video)
32. Just For You (Fun Video)
33. Behid The Scenes Featurette
: Blu-ray
/: 1080i
: BDMV
: H.264
: DTS-HD MA; DTS
: MPEG-4 AVC Video / 25708 kbps / 1080i / 29,970 fps / 16:9 / High Profile 4.1
: Undetermined / DTS-HD Master Audio / 2.0 / 48 kHz / 1892 kbps / 24-bit (DTS Core: 2.0 / 48 kHz / 256 kbps / 24-bit) (Live)
2: Undetermined / DTS Audio / 2.0 / 48 kHz / 768 kbps / 24-bit (Bonus)
3: Undetermined / DTS Audio / 5.1 / 48 kHz / 768 kbps / 16-bit (Bonus)
MediaInfo / BDInfo
Disc Title:     Gregorian LIVE! Masters Of Chant Final Chapter Tour
Disc Size: 39 057 807 208 bytes
Protection: AACS
BD-Java: No
BDInfo: 0.5.8
Notes:
BDINFO HOME:
Cinema Squid
http://www.cinemasquid.com/blu-ray/tools/bdinfo
INCLUDES FORUMS REPORT FOR:
AVS Forum Blu-ray Audio and Video Specifications Thread
http://www.avsforum.com/avs-vb/showthread.php?t=1155731
********************
PLAYLIST: 01009.MPLS
********************
<--- BEGIN FORUMS PASTE --->
:
Total   Video
Title                                                           Codec   Length  Movie Size      Disc Size       Bitrate Bitrate Main Audio Track                          Secondary Audio Track
-----                                                           ------  ------- --------------  --------------  ------- ------- ------------------                        ---------------------
01009.MPLS                                                      AVC     2:49:12 38876884992  39057807208  30,64   25,71   DTS-HD Master 2.0 1680Kbps (48kHz/24-bit) DTS-HD Master 2.0 1689Kbps (48kHz/24-bit)
:
DISC INFO:
Disc Title:     Gregorian LIVE! Masters Of Chant Final Chapter Tour
Disc Size:      39057807208 bytes
Protection:     AACS
BD-Java:        No
BDInfo:         0.5.8
PLAYLIST REPORT:
Name:                   01009.MPLS
Length:                 2:49:12.208 (h:m:s.ms)
Size:                   38876884992 bytes
Total Bitrate:          30,64 Mbps
VIDEO:
Codec                   Bitrate             Description
-----                   -------             -----------
MPEG-4 AVC Video        25708 kbps          1080i / 29,970 fps / 16:9 / High Profile 4.1
AUDIO:
Codec                           Language        Bitrate         Description
-----                           --------        -------         -----------
DTS-HD Master Audio             Undetermined    1680 kbps       2.0 / 48 kHz / 1680 kbps / 24-bit (DTS Core: 2.0 / 48 kHz / 256 kbps / 24-bit)
DTS-HD Master Audio             Undetermined    1689 kbps       2.0 / 48 kHz / 1689 kbps / 24-bit (DTS Core: 2.0 / 48 kHz / 256 kbps / 24-bit)
FILES:
Name            Time In         Length          Size            Total Bitrate
----            -------         ------          ----            -------------
00001.M2TS      0:00:00.000     2:18:59.164     32113096704  30807
00002.M2TS      2:18:59.164     0:03:29.309     741740544     28350
00003.M2TS      2:22:28.473     0:05:26.025     1213181952   29769
00004.M2TS      2:27:54.499     0:03:18.331     744087552     30014
00005.M2TS      2:31:12.830     0:03:54.500     876988416     29918
00006.M2TS      2:35:07.331     0:03:03.082     675674112     29524
00007.M2TS      2:38:10.414     0:03:53.866     875630592     29953
00008.M2TS      2:42:04.281     0:07:07.927     1636485120   30594
CHAPTERS:
Number          Time In         Length          Avg Video Rate  Max 1-Sec Rate  Max 1-Sec Time  Max 5-Sec Rate  Max 5-Sec Time  Max 10Sec Rate  Max 10Sec Time  Avg Frame Size  Max Frame Size  Max Frame Time
------          -------         ------          --------------  --------------  --------------  --------------  --------------  --------------  --------------  --------------  --------------  --------------
1               0:00:00.000     0:06:27.220     24564 kbps     41161 kbps     00:00:36.169    30344 kbps     00:00:35.769    29064 kbps     00:03:25.738    102442 bytes   474397 bytes   00:00:13.146
2               0:06:27.220     0:04:52.225     25393 kbps     40593 kbps     00:08:13.192    30185 kbps     00:08:40.119    28928 kbps     00:06:48.674    105912 bytes   348891 bytes   00:08:41.153
3               0:11:19.445     0:03:59.038     25691 kbps     41232 kbps     00:14:35.875    29946 kbps     00:13:33.679    28815 kbps     00:14:04.076    107152 bytes   438168 bytes   00:12:38.090
4               0:15:18.484     0:04:20.727     27055 kbps     41243 kbps     00:17:42.294    30487 kbps     00:17:11.530    28885 kbps     00:18:10.422    112842 bytes   478903 bytes   00:17:49.935
5               0:19:39.211     0:04:31.671     23759 kbps     42247 kbps     00:23:34.813    30438 kbps     00:22:07.059    28808 kbps     00:23:07.652    99094 bytes    431628 bytes   00:21:50.375
6               0:24:10.882     0:05:19.452     25373 kbps     42019 kbps     00:28:05.183    30086 kbps     00:26:09.801    29109 kbps     00:25:46.444    105827 bytes   457533 bytes   00:25:46.912
7               0:29:30.335     0:04:14.988     25099 kbps     41964 kbps     00:32:16.935    30113 kbps     00:30:29.027    28868 kbps     00:31:26.050    104683 bytes   408414 bytes   00:32:41.492
8               0:33:45.323     0:03:27.507     25062 kbps     41064 kbps     00:36:55.613    30112 kbps     00:35:58.890    29253 kbps     00:36:46.571    104530 bytes   453862 bytes   00:35:29.827
9               0:37:12.830     0:06:19.045     26408 kbps     41437 kbps     00:42:27.745    30150 kbps     00:41:39.263    29023 kbps     00:39:21.659    110142 bytes   463087 bytes   00:41:40.865
10              0:43:31.875     0:04:38.177     25108 kbps     38273 kbps     00:46:38.228    30352 kbps     00:45:12.876    28815 kbps     00:44:07.578    104723 bytes   453788 bytes   00:46:34.124
11              0:48:10.053     0:05:50.349     25542 kbps     43511 kbps     00:52:30.313    30240 kbps     00:52:04.354    29160 kbps     00:49:24.061    106530 bytes   490359 bytes   00:52:33.750
12              0:54:00.403     0:04:25.231     25721 kbps     41277 kbps     00:54:34.771    30253 kbps     00:54:52.389    29035 kbps     00:57:09.993    107278 bytes   425512 bytes   00:57:32.549
13              0:58:25.635     0:05:10.576     25348 kbps     41177 kbps     01:01:09.632    30091 kbps     01:01:22.645    28880 kbps     01:00:16.613    105724 bytes   518212 bytes   01:01:01.224
14              1:03:36.212     0:04:52.558     25234 kbps     42625 kbps     01:07:11.360    30189 kbps     01:04:20.923    28828 kbps     01:05:06.903    105247 bytes   464716 bytes   01:04:51.153
15              1:08:28.771     0:06:38.164     23490 kbps     41251 kbps     01:14:34.069    30117 kbps     01:13:39.948    28769 kbps     01:12:32.147    97974 bytes    359237 bytes   01:12:32.181
16              1:15:06.935     0:04:59.599     25455 kbps     40984 kbps     01:18:05.447    30769 kbps     01:16:17.973    29002 kbps     01:15:26.522    106170 bytes   404911 bytes   01:19:43.378
17              1:20:06.535     0:03:38.217     26716 kbps     40467 kbps     01:21:48.370    30186 kbps     01:20:08.670    29063 kbps     01:21:24.746    111428 bytes   426746 bytes   01:21:18.940
18              1:23:44.753     0:09:21.127     26658 kbps     42639 kbps     01:28:18.626    30211 kbps     01:25:44.772    28819 kbps     01:29:28.830    111188 bytes   468125 bytes   01:32:19.700
19              1:33:05.880     0:08:21.667     25941 kbps     41891 kbps     01:38:16.023    30447 kbps     01:34:37.738    29127 kbps     01:34:37.872    108197 bytes   464838 bytes   01:40:39.500
20              1:41:27.548     0:04:58.264     25272 kbps     41875 kbps     01:42:17.731    30211 kbps     01:44:53.287    28887 kbps     01:44:52.953    105404 bytes   528868 bytes   01:41:49.136
21              1:46:25.812     0:04:51.124     23881 kbps     42459 kbps     01:47:45.792    30274 kbps     01:48:19.159    28891 kbps     01:50:29.456    99602 bytes    482603 bytes   01:49:23.957
22              1:51:16.936     0:05:23.189     23993 kbps     41723 kbps     01:55:54.047    30574 kbps     01:54:17.717    29094 kbps     01:56:13.433    100070 bytes   482132 bytes   01:55:48.942
23              1:56:40.126     0:04:49.522     25219 kbps     41774 kbps     01:59:20.419    30236 kbps     01:59:02.235    28940 kbps     01:57:38.151    105183 bytes   423691 bytes   01:58:24.530
24              2:01:29.649     0:05:45.278     25345 kbps     41256 kbps     02:02:58.003    30429 kbps     02:05:06.432    28868 kbps     02:05:06.232    105710 bytes   417466 bytes   02:07:11.223
25              2:07:14.927     0:03:53.466     26925 kbps     40297 kbps     02:07:58.303    30515 kbps     02:09:16.915    28749 kbps     02:07:58.303    112299 bytes   528366 bytes   02:09:53.385
26              2:11:08.393     0:07:50.770     26538 kbps     41605 kbps     02:16:18.136    30733 kbps     02:14:19.751    28919 kbps     02:13:49.755    110692 bytes   508845 bytes   02:18:43.181
27              2:18:59.164     0:03:29.309     25440 kbps     42697 kbps     02:21:30.381    30022 kbps     02:21:19.737    28880 kbps     02:19:57.822    106121 bytes   406695 bytes   02:21:03.721
28              2:22:28.473     0:05:26.025     26801 kbps     42204 kbps     02:26:54.739    30319 kbps     02:22:28.706    28883 kbps     02:22:28.773    111793 bytes   649476 bytes   02:24:17.248
29              2:27:54.499     0:03:18.331     27041 kbps     40853 kbps     02:30:42.266    30089 kbps     02:30:42.233    28859 kbps     02:30:42.199    112802 bytes   564973 bytes   02:29:16.781
30              2:31:12.830     0:03:54.500     26974 kbps     40714 kbps     02:31:13.097    29575 kbps     02:31:13.230    28967 kbps     02:31:13.230    112522 bytes   663032 bytes   02:31:55.439
31              2:35:07.331     0:03:03.082     27127 kbps     39429 kbps     02:35:34.124    29721 kbps     02:36:21.839    28998 kbps     02:36:24.174    113162 bytes   601736 bytes   02:35:25.783
32              2:38:10.414     0:03:53.866     26976 kbps     39296 kbps     02:38:34.705    30403 kbps     02:41:08.925    28864 kbps     02:41:37.554    112528 bytes   434585 bytes   02:39:38.902
33              2:42:04.281     0:07:07.927     27575 kbps     40697 kbps     02:42:09.553    30186 kbps     02:42:09.786    28932 kbps     02:42:09.820    115029 bytes   559397 bytes   02:44:57.988
STREAM DIAGNOSTICS:
File            PID             Type            Codec           Language                Seconds                 Bitrate                 Bytes           Packets
----            ---             ----            -----           --------                --------------          --------------          -------------   -----
00001.M2TS      4113 (0x1011)   0x1B            AVC                                     8339,097                25442                  26520677630  144279744
00001.M2TS      4352 (0x1100)   0x86            DTS-HD MA       und (Undetermined)      8339,097                1892                   1971905708   11302709
00001.M2TS      4353 (0x1101)   0x86            DTS-HD MA       und (Undetermined)      8339,097                1892                   1971909288   11302714
00002.M2TS      4113 (0x1011)   0x1B            AVC                                     209,242                 25448                  665592938     3620990
00002.M2TS      4352 (0x1100)   0x82            DTS             und (Undetermined)      209,242                 760                     19878912      116478
00002.M2TS      4353 (0x1101)   0x82            DTS             und (Undetermined)      209,242                 760                     19878912      116478
00003.M2TS      4113 (0x1011)   0x1B            AVC                                     325,959                 26806                  1092208614   5941562
00003.M2TS      4352 (0x1100)   0x82            DTS             und (Undetermined)      325,959                 759                     30942208      181302
00003.M2TS      4353 (0x1101)   0x82            DTS             und (Undetermined)      325,959                 759                     30942208      181302
00004.M2TS      4113 (0x1011)   0x1B            AVC                                     198,265                 27051                  670396399     3646905
00004.M2TS      4352 (0x1100)   0x82            DTS             und (Undetermined)      198,265                 757                     18750464      109866
00004.M2TS      4353 (0x1101)   0x82            DTS             und (Undetermined)      198,265                 757                     18750464      109866
00005.M2TS      4113 (0x1011)   0x1B            AVC                                     234,434                 26977                  790538332     4300443
00005.M2TS      4352 (0x1100)   0x82            DTS             und (Undetermined)      234,434                 748                     21912576      128394
00005.M2TS      4353 (0x1101)   0x82            DTS             und (Undetermined)      234,434                 748                     21912576      128394
00006.M2TS      4113 (0x1011)   0x1B            AVC                                     183,016                 27128                  620598012     3375985
00006.M2TS      4352 (0x1100)   0x82            DTS             und (Undetermined)      183,016                 251                     5738860       33758
00006.M2TS      4353 (0x1101)   0x82            DTS             und (Undetermined)      183,016                 756                     17284096      101274
00007.M2TS      4113 (0x1011)   0x1B            AVC                                     233,800                 26996                  788958720     4291881
00007.M2TS      4352 (0x1100)   0x82            DTS             und (Undetermined)      233,800                 754                     22040576      129144
00007.M2TS      4353 (0x1101)   0x82            DTS             und (Undetermined)      233,800                 754                     22040576      129144
00008.M2TS      4113 (0x1011)   0x1B            AVC                                     427,861                 27579                  1475016196   8023888
00008.M2TS      4352 (0x1100)   0x82            DTS             und (Undetermined)      427,861                 767                     40998912      240228
00008.M2TS      4353 (0x1101)   0x82            DTS             und (Undetermined)      427,861                 767                     40998912      240228
<---- END FORUMS PASTE ---->
QUICK SUMMARY:
Disc Title: Gregorian LIVE! Masters Of Chant Final Chapter Tour
Disc Size: 39 057 807 208 bytes
Protection: AACS
BD-Java: No
Playlist: 01009.MPLS
Size: 38 876 884 992 bytes
Length: 2:49:12.208
Total Bitrate: 30,64 Mbps
Video: MPEG-4 AVC Video / 25708 kbps / 1080i / 29,970 fps / 16:9 / High Profile 4.1
Audio: Undetermined / DTS-HD Master Audio / 2.0 / 48 kHz / 1680 kbps / 24-bit (DTS Core: 2.0 / 48 kHz / 256 kbps / 24-bit)
Audio: Undetermined / DTS-HD Master Audio / 2.0 / 48 kHz / 1689 kbps / 24-bit (DTS Core: 2.0 / 48 kHz / 256 kbps / 24-bit)
********************
PLAYLIST: 00001.MPLS
********************
<--- BEGIN FORUMS PASTE --->
:
Total   Video
Title                                                           Codec   Length  Movie Size      Disc Size       Bitrate Bitrate Main Audio Track                          Secondary Audio Track
-----                                                           ------  ------- --------------  --------------  ------- ------- ------------------                        ---------------------
00001.MPLS                                                      AVC     2:18:59 32113096704  39057807208  30,81   25,44   DTS-HD Master 2.0 1892Kbps (48kHz/24-bit) DTS-HD Master 2.0 1892Kbps (48kHz/24-bit)
:
DISC INFO:
Disc Title:     Gregorian LIVE! Masters Of Chant Final Chapter Tour
Disc Size:      39057807208 bytes
Protection:     AACS
BD-Java:        No
BDInfo:         0.5.8
PLAYLIST REPORT:
Name:                   00001.MPLS
Length:                 2:18:59.164 (h:m:s.ms)
Size:                   32113096704 bytes
Total Bitrate:          30,81 Mbps
VIDEO:
Codec                   Bitrate             Description
-----                   -------             -----------
MPEG-4 AVC Video        25442 kbps          1080i / 29,970 fps / 16:9 / High Profile 4.1
AUDIO:
Codec                           Language        Bitrate         Description
-----                           --------        -------         -----------
DTS-HD Master Audio             Undetermined    1892 kbps       2.0 / 48 kHz / 1892 kbps / 24-bit (DTS Core: 2.0 / 48 kHz / 256 kbps / 24-bit)
DTS-HD Master Audio             Undetermined    1892 kbps       2.0 / 48 kHz / 1892 kbps / 24-bit (DTS Core: 2.0 / 48 kHz / 256 kbps / 24-bit)
FILES:
Name            Time In         Length          Size            Total Bitrate
----            -------         ------          ----            -------------
00001.M2TS      0:00:00.000     2:18:59.164     32113096704  30807
CHAPTERS:
Number          Time In         Length          Avg Video Rate  Max 1-Sec Rate  Max 1-Sec Time  Max 5-Sec Rate  Max 5-Sec Time  Max 10Sec Rate  Max 10Sec Time  Avg Frame Size  Max Frame Size  Max Frame Time
------          -------         ------          --------------  --------------  --------------  --------------  --------------  --------------  --------------  --------------  --------------  --------------
1               0:00:00.000     2:18:59.164     25442 kbps     43511 kbps     00:52:30.313    30769 kbps     01:16:17.973    29253 kbps     00:36:46.571    106115 bytes   528868 bytes   01:41:49.136
STREAM DIAGNOSTICS:
File            PID             Type            Codec           Language                Seconds                 Bitrate                 Bytes           Packets
----            ---             ----            -----           --------                --------------          --------------          -------------   -----
00001.M2TS      4113 (0x1011)   0x1B            AVC                                     8339,097                25442                  26520677630  144279744
00001.M2TS      4352 (0x1100)   0x86            DTS-HD MA       und (Undetermined)      8339,097                1892                   1971905708   11302709
00001.M2TS      4353 (0x1101)   0x86            DTS-HD MA       und (Undetermined)      8339,097                1892                   1971909288   11302714
<---- END FORUMS PASTE ---->
QUICK SUMMARY:
Disc Title: Gregorian LIVE! Masters Of Chant Final Chapter Tour
Disc Size: 39 057 807 208 bytes
Protection: AACS
BD-Java: No
Playlist: 00001.MPLS
Size: 32 113 096 704 bytes
Length: 2:18:59.164
Total Bitrate: 30,81 Mbps
Video: MPEG-4 AVC Video / 25442 kbps / 1080i / 29,970 fps / 16:9 / High Profile 4.1
Audio: Undetermined / DTS-HD Master Audio / 2.0 / 48 kHz / 1892 kbps / 24-bit (DTS Core: 2.0 / 48 kHz / 256 kbps / 24-bit)
Audio: Undetermined / DTS-HD Master Audio / 2.0 / 48 kHz / 1892 kbps / 24-bit (DTS Core: 2.0 / 48 kHz / 256 kbps / 24-bit)
********************
PLAYLIST: 01001.MPLS
********************
<--- BEGIN FORUMS PASTE --->
:
Total   Video
Title                                                           Codec   Length  Movie Size      Disc Size       Bitrate Bitrate Main Audio Track                          Secondary Audio Track
-----                                                           ------  ------- --------------  --------------  ------- ------- ------------------                        ---------------------
01001.MPLS                                                      AVC     2:18:59 32113096704  39057807208  30,81   25,44   DTS-HD Master 2.0 1892Kbps (48kHz/24-bit) DTS-HD Master 2.0 1892Kbps (48kHz/24-bit)
:
DISC INFO:
Disc Title:     Gregorian LIVE! Masters Of Chant Final Chapter Tour
Disc Size:      39057807208 bytes
Protection:     AACS
BD-Java:        No
BDInfo:         0.5.8
PLAYLIST REPORT:
Name:                   01001.MPLS
Length:                 2:18:59.164 (h:m:s.ms)
Size:                   32113096704 bytes
Total Bitrate:          30,81 Mbps
VIDEO:
Codec                   Bitrate             Description
-----                   -------             -----------
MPEG-4 AVC Video        25442 kbps          1080i / 29,970 fps / 16:9 / High Profile 4.1
AUDIO:
Codec                           Language        Bitrate         Description
-----                           --------        -------         -----------
DTS-HD Master Audio             Undetermined    1892 kbps       2.0 / 48 kHz / 1892 kbps / 24-bit (DTS Core: 2.0 / 48 kHz / 256 kbps / 24-bit)
DTS-HD Master Audio             Undetermined    1892 kbps       2.0 / 48 kHz / 1892 kbps / 24-bit (DTS Core: 2.0 / 48 kHz / 256 kbps / 24-bit)
FILES:
Name            Time In         Length          Size            Total Bitrate
----            -------         ------          ----            -------------
00001.M2TS      0:00:00.000     2:18:59.164     32113096704  30807
CHAPTERS:
Number          Time In         Length          Avg Video Rate  Max 1-Sec Rate  Max 1-Sec Time  Max 5-Sec Rate  Max 5-Sec Time  Max 10Sec Rate  Max 10Sec Time  Avg Frame Size  Max Frame Size  Max Frame Time
------          -------         ------          --------------  --------------  --------------  --------------  --------------  --------------  --------------  --------------  --------------  --------------
1               0:00:00.000     0:06:27.220     24564 kbps     41161 kbps     00:00:36.169    30344 kbps     00:00:35.769    29064 kbps     00:03:25.738    102442 bytes   474397 bytes   00:00:13.146
2               0:06:27.220     0:04:52.225     25393 kbps     40593 kbps     00:08:13.192    30185 kbps     00:08:40.119    28928 kbps     00:06:48.674    105912 bytes   348891 bytes   00:08:41.153
3               0:11:19.445     0:03:59.038     25691 kbps     41232 kbps     00:14:35.875    29946 kbps     00:13:33.679    28815 kbps     00:14:04.076    107152 bytes   438168 bytes   00:12:38.090
4               0:15:18.484     0:04:20.727     27055 kbps     41243 kbps     00:17:42.294    30487 kbps     00:17:11.530    28885 kbps     00:18:10.422    112842 bytes   478903 bytes   00:17:49.935
5               0:19:39.211     0:04:31.671     23759 kbps     42247 kbps     00:23:34.813    30438 kbps     00:22:07.059    28808 kbps     00:23:07.652    99094 bytes    431628 bytes   00:21:50.375
6               0:24:10.882     0:05:19.452     25373 kbps     42019 kbps     00:28:05.183    30086 kbps     00:26:09.801    29109 kbps     00:25:46.444    105827 bytes   457533 bytes   00:25:46.912
7               0:29:30.335     0:04:14.988     25099 kbps     41964 kbps     00:32:16.935    30113 kbps     00:30:29.027    28868 kbps     00:31:26.050    104683 bytes   408414 bytes   00:32:41.492
8               0:33:45.323     0:03:27.507     25062 kbps     41064 kbps     00:36:55.613    30112 kbps     00:35:58.890    29253 kbps     00:36:46.571    104530 bytes   453862 bytes   00:35:29.827
9               0:37:12.830     0:06:19.045     26408 kbps     41437 kbps     00:42:27.745    30150 kbps     00:41:39.263    29023 kbps     00:39:21.659    110142 bytes   463087 bytes   00:41:40.865
10              0:43:31.875     0:04:38.177     25108 kbps     38273 kbps     00:46:38.228    30352 kbps     00:45:12.876    28815 kbps     00:44:07.578    104723 bytes   453788 bytes   00:46:34.124
11              0:48:10.053     0:05:50.349     25542 kbps     43511 kbps     00:52:30.313    30240 kbps     00:52:04.354    29160 kbps     00:49:24.061    106530 bytes   490359 bytes   00:52:33.750
12              0:54:00.403     0:04:25.231     25721 kbps     41277 kbps     00:54:34.771    30253 kbps     00:54:52.389    29035 kbps     00:57:09.993    107278 bytes   425512 bytes   00:57:32.549
13              0:58:25.635     0:05:10.576     25348 kbps     41177 kbps     01:01:09.632    30091 kbps     01:01:22.645    28880 kbps     01:00:16.613    105724 bytes   518212 bytes   01:01:01.224
14              1:03:36.212     0:04:52.558     25234 kbps     42625 kbps     01:07:11.360    30189 kbps     01:04:20.923    28828 kbps     01:05:06.903    105247 bytes   464716 bytes   01:04:51.153
15              1:08:28.771     0:06:38.164     23490 kbps     41251 kbps     01:14:34.069    30117 kbps     01:13:39.948    28769 kbps     01:12:32.147    97974 bytes    359237 bytes   01:12:32.181
16              1:15:06.935     0:04:59.599     25455 kbps     40984 kbps     01:18:05.447    30769 kbps     01:16:17.973    29002 kbps     01:15:26.522    106170 bytes   404911 bytes   01:19:43.378
17              1:20:06.535     0:03:38.217     26716 kbps     40467 kbps     01:21:48.370    30186 kbps     01:20:08.670    29063 kbps     01:21:24.746    111428 bytes   426746 bytes   01:21:18.940
18              1:23:44.753     0:09:21.127     26658 kbps     42639 kbps     01:28:18.626    30211 kbps     01:25:44.772    28819 kbps     01:29:28.830    111188 bytes   468125 bytes   01:32:19.700
19              1:33:05.880     0:08:21.667     25941 kbps     41891 kbps     01:38:16.023    30447 kbps     01:34:37.738    29127 kbps     01:34:37.872    108197 bytes   464838 bytes   01:40:39.500
20              1:41:27.548     0:04:58.264     25272 kbps     41875 kbps     01:42:17.731    30211 kbps     01:44:53.287    28887 kbps     01:44:52.953    105404 bytes   528868 bytes   01:41:49.136
21              1:46:25.812     0:04:51.124     23881 kbps     42459 kbps     01:47:45.792    30274 kbps     01:48:19.159    28891 kbps     01:50:29.456    99602 bytes    482603 bytes   01:49:23.957
22              1:51:16.936     0:05:23.189     23993 kbps     41723 kbps     01:55:54.047    30574 kbps     01:54:17.717    29094 kbps     01:56:13.433    100070 bytes   482132 bytes   01:55:48.942
23              1:56:40.126     0:04:49.522     25219 kbps     41774 kbps     01:59:20.419    30236 kbps     01:59:02.235    28940 kbps     01:57:38.151    105183 bytes   423691 bytes   01:58:24.530
24              2:01:29.649     0:05:45.278     25345 kbps     41256 kbps     02:02:58.003    30429 kbps     02:05:06.432    28868 kbps     02:05:06.232    105710 bytes   417466 bytes   02:07:11.223
25              2:07:14.927     0:03:53.466     26925 kbps     40297 kbps     02:07:58.303    30515 kbps     02:09:16.915    28749 kbps     02:07:58.303    112299 bytes   528366 bytes   02:09:53.385
26              2:11:08.393     0:07:48.601     26660 kbps     41605 kbps     02:16:18.136    30733 kbps     02:14:19.751    28919 kbps     02:13:49.755    111195 bytes   508845 bytes   02:18:43.181
27              2:18:56.995     0:00:02.168     66 kbps         67 kbps         02:18:56.995    0 kbps          00:00:00.000    0 kbps          00:00:00.000    284 bytes       786 bytes       02:18:57.095
STREAM DIAGNOSTICS:
File            PID             Type            Codec           Language                Seconds                 Bitrate                 Bytes           Packets
----            ---             ----            -----           --------                --------------          --------------          -------------   -----
00001.M2TS      4113 (0x1011)   0x1B            AVC                                     8339,097                25442                  26520677630  144279744
00001.M2TS      4352 (0x1100)   0x86            DTS-HD MA       und (Undetermined)      8339,097                1892                   1971905708   11302709
00001.M2TS      4353 (0x1101)   0x86            DTS-HD MA       und (Undetermined)      8339,097                1892                   1971909288   11302714
<---- END FORUMS PASTE ---->
QUICK SUMMARY:
Disc Title: Gregorian LIVE! Masters Of Chant Final Chapter Tour
Disc Size: 39 057 807 208 bytes
Protection: AACS
BD-Java: No
Playlist: 01001.MPLS
Size: 32 113 096 704 bytes
Length: 2:18:59.164
Total Bitrate: 30,81 Mbps
Video: MPEG-4 AVC Video / 25442 kbps / 1080i / 29,970 fps / 16:9 / High Profile 4.1
Audio: Undetermined / DTS-HD Master Audio / 2.0 / 48 kHz / 1892 kbps / 24-bit (DTS Core: 2.0 / 48 kHz / 256 kbps / 24-bit)
Audio: Undetermined / DTS-HD Master Audio / 2.0 / 48 kHz / 1892 kbps / 24-bit (DTS Core: 2.0 / 48 kHz / 256 kbps / 24-bit)
********************
PLAYLIST: 00008.MPLS
********************
<--- BEGIN FORUMS PASTE --->
:
Total   Video
Title                                                           Codec   Length  Movie Size      Disc Size       Bitrate Bitrate Main Audio Track                          Secondary Audio Track
-----                                                           ------  ------- --------------  --------------  ------- ------- ------------------                        ---------------------
00008.MPLS                                                      AVC     0:07:07 1636485120   39057807208  30,59   27,58   DTS 2.0 768Kbps (48kHz/24-bit)            DTS 5.1 768Kbps (48kHz/16-bit)
:
DISC INFO:
Disc Title:     Gregorian LIVE! Masters Of Chant Final Chapter Tour
Disc Size:      39057807208 bytes
Protection:     AACS
BD-Java:        No
BDInfo:         0.5.8
PLAYLIST REPORT:
Name:                   00008.MPLS
Length:                 0:07:07.927 (h:m:s.ms)
Size:                   1636485120 bytes
Total Bitrate:          30,59 Mbps
VIDEO:
Codec                   Bitrate             Description
-----                   -------             -----------
MPEG-4 AVC Video        27575 kbps          1080i / 29,970 fps / 16:9 / High Profile 4.1
AUDIO:
Codec                           Language        Bitrate         Description
-----                           --------        -------         -----------
DTS Audio                       Undetermined    768 kbps        2.0 / 48 kHz / 768 kbps / 24-bit
DTS Audio                       Undetermined    768 kbps        5.1 / 48 kHz / 768 kbps / 16-bit
FILES:
Name            Time In         Length          Size            Total Bitrate
----            -------         ------          ----            -------------
00008.M2TS      0:00:00.000     0:07:07.927     1636485120   30594
CHAPTERS:
Number          Time In         Length          Avg Video Rate  Max 1-Sec Rate  Max 1-Sec Time  Max 5-Sec Rate  Max 5-Sec Time  Max 10Sec Rate  Max 10Sec Time  Avg Frame Size  Max Frame Size  Max Frame Time
------          -------         ------          --------------  --------------  --------------  --------------  --------------  --------------  --------------  --------------  --------------  --------------
1               0:00:00.000     0:07:07.927     27575 kbps     40697 kbps     00:00:05.271    30186 kbps     00:00:05.505    28932 kbps     00:00:05.538    115020 bytes   559397 bytes   00:02:53.706
STREAM DIAGNOSTICS:
File            PID             Type            Codec           Language                Seconds                 Bitrate                 Bytes           Packets
----            ---             ----            -----           --------                --------------          --------------          -------------   -----
00008.M2TS      4113 (0x1011)   0x1B            AVC                                     427,861                 27579                  1475016196   8023888
00008.M2TS      4352 (0x1100)   0x82            DTS             und (Undetermined)      427,861                 767                     40998912      240228
00008.M2TS      4353 (0x1101)   0x82            DTS             und (Undetermined)      427,861                 767                     40998912      240228
<---- END FORUMS PASTE ---->
QUICK SUMMARY:
Disc Title: Gregorian LIVE! Masters Of Chant Final Chapter Tour
Disc Size: 39 057 807 208 bytes
Protection: AACS
BD-Java: No
Playlist: 00008.MPLS
Size: 1 636 485 120 bytes
Length: 0:07:07.927
Total Bitrate: 30,59 Mbps
Video: MPEG-4 AVC Video / 27575 kbps / 1080i / 29,970 fps / 16:9 / High Profile 4.1
Audio: Undetermined / DTS Audio / 2.0 / 48 kHz / 768 kbps / 24-bit
Audio: Undetermined / DTS Audio / 5.1 / 48 kHz / 768 kbps / 16-bit
********************
PLAYLIST: 01008.MPLS
********************
<--- BEGIN FORUMS PASTE --->
:
Total   Video
Title                                                           Codec   Length  Movie Size      Disc Size       Bitrate Bitrate Main Audio Track                          Secondary Audio Track
-----                                                           ------  ------- --------------  --------------  ------- ------- ------------------                        ---------------------
01008.MPLS                                                      AVC     0:07:07 1636485120   39057807208  30,59   27,58   DTS 2.0 768Kbps (48kHz/24-bit)            DTS 5.1 768Kbps (48kHz/16-bit)
:
DISC INFO:
Disc Title:     Gregorian LIVE! Masters Of Chant Final Chapter Tour
Disc Size:      39057807208 bytes
Protection:     AACS
BD-Java:        No
BDInfo:         0.5.8
PLAYLIST REPORT:
Name:                   01008.MPLS
Length:                 0:07:07.927 (h:m:s.ms)
Size:                   1636485120 bytes
Total Bitrate:          30,59 Mbps
VIDEO:
Codec                   Bitrate             Description
-----                   -------             -----------
MPEG-4 AVC Video        27575 kbps          1080i / 29,970 fps / 16:9 / High Profile 4.1
AUDIO:
Codec                           Language        Bitrate         Description
-----                           --------        -------         -----------
DTS Audio                       Undetermined    768 kbps        2.0 / 48 kHz / 768 kbps / 24-bit
DTS Audio                       Undetermined    768 kbps        5.1 / 48 kHz / 768 kbps / 16-bit
FILES:
Name            Time In         Length          Size            Total Bitrate
----            -------         ------          ----            -------------
00008.M2TS      0:00:00.000     0:07:07.927     1636485120   30594
CHAPTERS:
Number          Time In         Length          Avg Video Rate  Max 1-Sec Rate  Max 1-Sec Time  Max 5-Sec Rate  Max 5-Sec Time  Max 10Sec Rate  Max 10Sec Time  Avg Frame Size  Max Frame Size  Max Frame Time
------          -------         ------          --------------  --------------  --------------  --------------  --------------  --------------  --------------  --------------  --------------  --------------
1               0:00:00.000     0:07:07.927     27575 kbps     40697 kbps     00:00:05.271    30186 kbps     00:00:05.505    28932 kbps     00:00:05.538    115020 bytes   559397 bytes   00:02:53.706
STREAM DIAGNOSTICS:
File            PID             Type            Codec           Language                Seconds                 Bitrate                 Bytes           Packets
----            ---             ----            -----           --------                --------------          --------------          -------------   -----
00008.M2TS      4113 (0x1011)   0x1B            AVC                                     427,861                 27579                  1475016196   8023888
00008.M2TS      4352 (0x1100)   0x82            DTS             und (Undetermined)      427,861                 767                     40998912      240228
00008.M2TS      4353 (0x1101)   0x82            DTS             und (Undetermined)      427,861                 767                     40998912      240228
<---- END FORUMS PASTE ---->
QUICK SUMMARY:
Disc Title: Gregorian LIVE! Masters Of Chant Final Chapter Tour
Disc Size: 39 057 807 208 bytes
Protection: AACS
BD-Java: No
Playlist: 01008.MPLS
Size: 1 636 485 120 bytes
Length: 0:07:07.927
Total Bitrate: 30,59 Mbps
Video: MPEG-4 AVC Video / 27575 kbps / 1080i / 29,970 fps / 16:9 / High Profile 4.1
Audio: Undetermined / DTS Audio / 2.0 / 48 kHz / 768 kbps / 24-bit
Audio: Undetermined / DTS Audio / 5.1 / 48 kHz / 768 kbps / 16-bit
********************
PLAYLIST: 00003.MPLS
********************
<--- BEGIN FORUMS PASTE --->
:
Total   Video
Title                                                           Codec   Length  Movie Size      Disc Size       Bitrate Bitrate Main Audio Track                          Secondary Audio Track
-----                                                           ------  ------- --------------  --------------  ------- ------- ------------------                        ---------------------
00003.MPLS                                                      AVC     0:05:26 1213181952   39057807208  29,77   26,80   DTS 2.0 768Kbps (48kHz/24-bit)            DTS 5.1 768Kbps (48kHz/16-bit)
:
DISC INFO:
Disc Title:     Gregorian LIVE! Masters Of Chant Final Chapter Tour
Disc Size:      39057807208 bytes
Protection:     AACS
BD-Java:        No
BDInfo:         0.5.8
PLAYLIST REPORT:
Name:                   00003.MPLS
Length:                 0:05:26.025 (h:m:s.ms)
Size:                   1213181952 bytes
Total Bitrate:          29,77 Mbps
VIDEO:
Codec                   Bitrate             Description
-----                   -------             -----------
MPEG-4 AVC Video        26801 kbps          1080i / 29,970 fps / 16:9 / High Profile 4.1
AUDIO:
Codec                           Language        Bitrate         Description
-----                           --------        -------         -----------
DTS Audio                       Undetermined    768 kbps        2.0 / 48 kHz / 768 kbps / 24-bit
DTS Audio                       Undetermined    768 kbps        5.1 / 48 kHz / 768 kbps / 16-bit
FILES:
Name            Time In         Length          Size            Total Bitrate
----            -------         ------          ----            -------------
00003.M2TS      0:00:00.000     0:05:26.025     1213181952   29769
CHAPTERS:
Number          Time In         Length          Avg Video Rate  Max 1-Sec Rate  Max 1-Sec Time  Max 5-Sec Rate  Max 5-Sec Time  Max 10Sec Rate  Max 10Sec Time  Avg Frame Size  Max Frame Size  Max Frame Time
------          -------         ------          --------------  --------------  --------------  --------------  --------------  --------------  --------------  --------------  --------------  --------------
1               0:00:00.000     0:05:26.025     26801 kbps     42204 kbps     00:04:26.266    30319 kbps     00:00:00.233    28883 kbps     00:00:00.300    111792 bytes   649476 bytes   00:01:48.775
STREAM DIAGNOSTICS:
File            PID             Type            Codec           Language                Seconds                 Bitrate                 Bytes           Packets
----            ---             ----            -----           --------                --------------          --------------          -------------   -----
00003.M2TS      4113 (0x1011)   0x1B            AVC                                     325,959                 26806                  1092208614   5941562
00003.M2TS      4352 (0x1100)   0x82            DTS             und (Undetermined)      325,959                 759                     30942208      181302
00003.M2TS      4353 (0x1101)   0x82            DTS             und (Undetermined)      325,959                 759                     30942208      181302
<---- END FORUMS PASTE ---->
QUICK SUMMARY:
Disc Title: Gregorian LIVE! Masters Of Chant Final Chapter Tour
Disc Size: 39 057 807 208 bytes
Protection: AACS
BD-Java: No
Playlist: 00003.MPLS
Size: 1 213 181 952 bytes
Length: 0:05:26.025
Total Bitrate: 29,77 Mbps
Video: MPEG-4 AVC Video / 26801 kbps / 1080i / 29,970 fps / 16:9 / High Profile 4.1
Audio: Undetermined / DTS Audio / 2.0 / 48 kHz / 768 kbps / 24-bit
Audio: Undetermined / DTS Audio / 5.1 / 48 kHz / 768 kbps / 16-bit
********************
PLAYLIST: 01003.MPLS
********************
<--- BEGIN FORUMS PASTE --->
:
Total   Video
Title                                                           Codec   Length  Movie Size      Disc Size       Bitrate Bitrate Main Audio Track                          Secondary Audio Track
-----                                                           ------  ------- --------------  --------------  ------- ------- ------------------                        ---------------------
01003.MPLS                                                      AVC     0:05:26 1213181952   39057807208  29,77   26,80   DTS 2.0 768Kbps (48kHz/24-bit)            DTS 5.1 768Kbps (48kHz/16-bit)
:
DISC INFO:
Disc Title:     Gregorian LIVE! Masters Of Chant Final Chapter Tour
Disc Size:      39057807208 bytes
Protection:     AACS
BD-Java:        No
BDInfo:         0.5.8
PLAYLIST REPORT:
Name:                   01003.MPLS
Length:                 0:05:26.025 (h:m:s.ms)
Size:                   1213181952 bytes
Total Bitrate:          29,77 Mbps
VIDEO:
Codec                   Bitrate             Description
-----                   -------             -----------
MPEG-4 AVC Video        26801 kbps          1080i / 29,970 fps / 16:9 / High Profile 4.1
AUDIO:
Codec                           Language        Bitrate         Description
-----                           --------        -------         -----------
DTS Audio                       Undetermined    768 kbps        2.0 / 48 kHz / 768 kbps / 24-bit
DTS Audio                       Undetermined    768 kbps        5.1 / 48 kHz / 768 kbps / 16-bit
FILES:
Name            Time In         Length          Size            Total Bitrate
----            -------         ------          ----            -------------
00003.M2TS      0:00:00.000     0:05:26.025     1213181952   29769
CHAPTERS:
Number          Time In         Length          Avg Video Rate  Max 1-Sec Rate  Max 1-Sec Time  Max 5-Sec Rate  Max 5-Sec Time  Max 10Sec Rate  Max 10Sec Time  Avg Frame Size  Max Frame Size  Max Frame Time
------          -------         ------          --------------  --------------  --------------  --------------  --------------  --------------  --------------  --------------  --------------  --------------
1               0:00:00.000     0:05:22.989     27052 kbps     42204 kbps     00:04:26.266    30319 kbps     00:00:00.233    28883 kbps     00:00:00.300    112817 bytes   649476 bytes   00:01:48.775
2               0:05:22.989     0:00:03.036     66 kbps         67 kbps         00:05:22.989    0 kbps          00:00:00.000    0 kbps          00:00:00.000    281 bytes       787 bytes       00:05:23.089
STREAM DIAGNOSTICS:
File            PID             Type            Codec           Language                Seconds                 Bitrate                 Bytes           Packets
----            ---             ----            -----           --------                --------------          --------------          -------------   -----
00003.M2TS      4113 (0x1011)   0x1B            AVC                                     325,959                 26806                  1092208614   5941562
00003.M2TS      4352 (0x1100)   0x82            DTS             und (Undetermined)      325,959                 759                     30942208      181302
00003.M2TS      4353 (0x1101)   0x82            DTS             und (Undetermined)      325,959                 759                     30942208      181302
<---- END FORUMS PASTE ---->
QUICK SUMMARY:
Disc Title: Gregorian LIVE! Masters Of Chant Final Chapter Tour
Disc Size: 39 057 807 208 bytes
Protection: AACS
BD-Java: No
Playlist: 01003.MPLS
Size: 1 213 181 952 bytes
Length: 0:05:26.025
Total Bitrate: 29,77 Mbps
Video: MPEG-4 AVC Video / 26801 kbps / 1080i / 29,970 fps / 16:9 / High Profile 4.1
Audio: Undetermined / DTS Audio / 2.0 / 48 kHz / 768 kbps / 24-bit
Audio: Undetermined / DTS Audio / 5.1 / 48 kHz / 768 kbps / 16-bit
********************
PLAYLIST: 00005.MPLS
********************
<--- BEGIN FORUMS PASTE --->
:
Total   Video
Title                                                           Codec   Length  Movie Size      Disc Size       Bitrate Bitrate Main Audio Track                          Secondary Audio Track
-----                                                           ------  ------- --------------  --------------  ------- ------- ------------------                        ---------------------
00005.MPLS                                                      AVC     0:03:54 876988416     39057807208  29,92   26,97   DTS 2.0 768Kbps (48kHz/24-bit)            DTS 5.1 768Kbps (48kHz/16-bit)
:
DISC INFO:
Disc Title:     Gregorian LIVE! Masters Of Chant Final Chapter Tour
Disc Size:      39057807208 bytes
Protection:     AACS
BD-Java:        No
BDInfo:         0.5.8
PLAYLIST REPORT:
Name:                   00005.MPLS
Length:                 0:03:54.500 (h:m:s.ms)
Size:                   876988416 bytes
Total Bitrate:          29,92 Mbps
VIDEO:
Codec                   Bitrate             Description
-----                   -------             -----------
MPEG-4 AVC Video        26969 kbps          1080i / 29,970 fps / 16:9 / High Profile 4.1
AUDIO:
Codec                           Language        Bitrate         Description
-----                           --------        -------         -----------
DTS Audio                       Undetermined    768 kbps        2.0 / 48 kHz / 768 kbps / 24-bit
DTS Audio                       Undetermined    768 kbps        5.1 / 48 kHz / 768 kbps / 16-bit
FILES:
Name            Time In         Length          Size            Total Bitrate
----            -------         ------          ----            -------------
00005.M2TS      0:00:00.000     0:03:54.500     876988416     29918
CHAPTERS:
Number          Time In         Length          Avg Video Rate  Max 1-Sec Rate  Max 1-Sec Time  Max 5-Sec Rate  Max 5-Sec Time  Max 10Sec Rate  Max 10Sec Time  Avg Frame Size  Max Frame Size  Max Frame Time
------          -------         ------          --------------  --------------  --------------  --------------  --------------  --------------  --------------  --------------  --------------  --------------
1               0:00:00.000     0:03:54.500     26969 kbps     40714 kbps     00:00:00.266    29575 kbps     00:00:00.400    28967 kbps     00:00:00.400    112500 bytes   663032 bytes   00:00:42.609
STREAM DIAGNOSTICS:
File            PID             Type            Codec           Language                Seconds                 Bitrate                 Bytes           Packets
----            ---             ----            -----           --------                --------------          --------------          -------------   -----
00005.M2TS      4113 (0x1011)   0x1B            AVC                                     234,434                 26977                  790538332     4300443
00005.M2TS      4352 (0x1100)   0x82            DTS             und (Undetermined)      234,434                 748                     21912576      128394
00005.M2TS      4353 (0x1101)   0x82            DTS             und (Undetermined)      234,434                 748                     21912576      128394
<---- END FORUMS PASTE ---->
QUICK SUMMARY:
Disc Title: Gregorian LIVE! Masters Of Chant Final Chapter Tour
Disc Size: 39 057 807 208 bytes
Protection: AACS
BD-Java: No
Playlist: 00005.MPLS
Size: 876 988 416 bytes
Length: 0:03:54.500
Total Bitrate: 29,92 Mbps
Video: MPEG-4 AVC Video / 26969 kbps / 1080i / 29,970 fps / 16:9 / High Profile 4.1
Audio: Undetermined / DTS Audio / 2.0 / 48 kHz / 768 kbps / 24-bit
Audio: Undetermined / DTS Audio / 5.1 / 48 kHz / 768 kbps / 16-bit
********************
PLAYLIST: 01005.MPLS
********************
<--- BEGIN FORUMS PASTE --->
:
Total   Video
Title                                                           Codec   Length  Movie Size      Disc Size       Bitrate Bitrate Main Audio Track                          Secondary Audio Track
-----                                                           ------  ------- --------------  --------------  ------- ------- ------------------                        ---------------------
01005.MPLS                                                      AVC     0:03:54 876988416     39057807208  29,92   26,97   DTS 2.0 768Kbps (48kHz/24-bit)            DTS 5.1 768Kbps (48kHz/16-bit)
:
DISC INFO:
Disc Title:     Gregorian LIVE! Masters Of Chant Final Chapter Tour
Disc Size:      39057807208 bytes
Protection:     AACS
BD-Java:        No
BDInfo:         0.5.8
PLAYLIST REPORT:
Name:                   01005.MPLS
Length:                 0:03:54.500 (h:m:s.ms)
Size:                   876988416 bytes
Total Bitrate:          29,92 Mbps
VIDEO:
Codec                   Bitrate             Description
-----                   -------             -----------
MPEG-4 AVC Video        26969 kbps          1080i / 29,970 fps / 16:9 / High Profile 4.1
AUDIO:
Codec                           Language        Bitrate         Description
-----                           --------        -------         -----------
DTS Audio                       Undetermined    768 kbps        2.0 / 48 kHz / 768 kbps / 24-bit
DTS Audio                       Undetermined    768 kbps        5.1 / 48 kHz / 768 kbps / 16-bit
FILES:
Name            Time In         Length          Size            Total Bitrate
----            -------         ------          ----            -------------
00005.M2TS      0:00:00.000     0:03:54.500     876988416     29918
CHAPTERS:
Number          Time In         Length          Avg Video Rate  Max 1-Sec Rate  Max 1-Sec Time  Max 5-Sec Rate  Max 5-Sec Time  Max 10Sec Rate  Max 10Sec Time  Avg Frame Size  Max Frame Size  Max Frame Time
------          -------         ------          --------------  --------------  --------------  --------------  --------------  --------------  --------------  --------------  --------------  --------------
1               0:00:00.000     0:03:49.028     27612 kbps     40714 kbps     00:00:00.266    29575 kbps     00:00:00.400    28967 kbps     00:00:00.400    115148 bytes   663032 bytes   00:00:42.609
2               0:03:49.028     0:00:05.472     66 kbps         67 kbps         00:03:49.028    67 kbps         00:03:49.028    0 kbps          00:00:00.000    278 bytes       785 bytes       00:03:49.195
STREAM DIAGNOSTICS:
File            PID             Type            Codec           Language                Seconds                 Bitrate                 Bytes           Packets
----            ---             ----            -----           --------                --------------          --------------          -------------   -----
00005.M2TS      4113 (0x1011)   0x1B            AVC                                     234,434                 26977                  790538332     4300443
00005.M2TS      4352 (0x1100)   0x82            DTS             und (Undetermined)      234,434                 748                     21912576      128394
00005.M2TS      4353 (0x1101)   0x82            DTS             und (Undetermined)      234,434                 748                     21912576      128394
<---- END FORUMS PASTE ---->
QUICK SUMMARY:
Disc Title: Gregorian LIVE! Masters Of Chant Final Chapter Tour
Disc Size: 39 057 807 208 bytes
Protection: AACS
BD-Java: No
Playlist: 01005.MPLS
Size: 876 988 416 bytes
Length: 0:03:54.500
Total Bitrate: 29,92 Mbps
Video: MPEG-4 AVC Video / 26969 kbps / 1080i / 29,970 fps / 16:9 / High Profile 4.1
Audio: Undetermined / DTS Audio / 2.0 / 48 kHz / 768 kbps / 24-bit
Audio: Undetermined / DTS Audio / 5.1 / 48 kHz / 768 kbps / 16-bit
********************
PLAYLIST: 00007.MPLS
********************
<--- BEGIN FORUMS PASTE --->
:
Total   Video
Title                                                           Codec   Length  Movie Size      Disc Size       Bitrate Bitrate Main Audio Track                          Secondary Audio Track
-----                                                           ------  ------- --------------  --------------  ------- ------- ------------------                        ---------------------
00007.MPLS                                                      AVC     0:03:53 875630592     39057807208  29,95   26,99   DTS 2.0 768Kbps (48kHz/24-bit)            DTS 5.1 768Kbps (48kHz/16-bit)
:
DISC INFO:
Disc Title:     Gregorian LIVE! Masters Of Chant Final Chapter Tour
Disc Size:      39057807208 bytes
Protection:     AACS
BD-Java:        No
BDInfo:         0.5.8
PLAYLIST REPORT:
Name:                   00007.MPLS
Length:                 0:03:53.866 (h:m:s.ms)
Size:                   875630592 bytes
Total Bitrate:          29,95 Mbps
VIDEO:
Codec                   Bitrate             Description
-----                   -------             -----------
MPEG-4 AVC Video        26988 kbps          1080i / 29,970 fps / 16:9 / High Profile 4.1
AUDIO:
Codec                           Language        Bitrate         Description
-----                           --------        -------         -----------
DTS Audio                       Undetermined    768 kbps        2.0 / 48 kHz / 768 kbps / 24-bit
DTS Audio                       Undetermined    768 kbps        5.1 / 48 kHz / 768 kbps / 16-bit
FILES:
Name            Time In         Length          Size            Total Bitrate
----            -------         ------          ----            -------------
00007.M2TS      0:00:00.000     0:03:53.866     875630592     29953
CHAPTERS:
Number          Time In         Length          Avg Video Rate  Max 1-Sec Rate  Max 1-Sec Time  Max 5-Sec Rate  Max 5-Sec Time  Max 10Sec Rate  Max 10Sec Time  Avg Frame Size  Max Frame Size  Max Frame Time
------          -------         ------          --------------  --------------  --------------  --------------  --------------  --------------  --------------  --------------  --------------  --------------
1               0:00:00.000     0:03:53.866     26988 kbps     39296 kbps     00:00:24.290    30403 kbps     00:02:58.511    28864 kbps     00:03:27.140    112580 bytes   434585 bytes   00:01:28.488
STREAM DIAGNOSTICS:
File            PID             Type            Codec           Language                Seconds                 Bitrate                 Bytes           Packets
----            ---             ----            -----           --------                --------------          --------------          -------------   -----
00007.M2TS      4113 (0x1011)   0x1B            AVC                                     233,800                 26996                  788958720     4291881
00007.M2TS      4352 (0x1100)   0x82            DTS             und (Undetermined)      233,800                 754                     22040576      129144
00007.M2TS      4353 (0x1101)   0x82            DTS             und (Undetermined)      233,800                 754                     22040576      129144
<---- END FORUMS PASTE ---->
QUICK SUMMARY:
Disc Title: Gregorian LIVE! Masters Of Chant Final Chapter Tour
Disc Size: 39 057 807 208 bytes
Protection: AACS
BD-Java: No
Playlist: 00007.MPLS
Size: 875 630 592 bytes
Length: 0:03:53.866
Total Bitrate: 29,95 Mbps
Video: MPEG-4 AVC Video / 26988 kbps / 1080i / 29,970 fps / 16:9 / High Profile 4.1
Audio: Undetermined / DTS Audio / 2.0 / 48 kHz / 768 kbps / 24-bit
Audio: Undetermined / DTS Audio / 5.1 / 48 kHz / 768 kbps / 16-bit
********************
PLAYLIST: 01007.MPLS
********************
<--- BEGIN FORUMS PASTE --->
:
Total   Video
Title                                                           Codec   Length  Movie Size      Disc Size       Bitrate Bitrate Main Audio Track                          Secondary Audio Track
-----                                                           ------  ------- --------------  --------------  ------- ------- ------------------                        ---------------------
01007.MPLS                                                      AVC     0:03:53 875630592     39057807208  29,95   26,99   DTS 2.0 768Kbps (48kHz/24-bit)            DTS 5.1 768Kbps (48kHz/16-bit)
:
DISC INFO:
Disc Title:     Gregorian LIVE! Masters Of Chant Final Chapter Tour
Disc Size:      39057807208 bytes
Protection:     AACS
BD-Java:        No
BDInfo:         0.5.8
PLAYLIST REPORT:
Name:                   01007.MPLS
Length:                 0:03:53.866 (h:m:s.ms)
Size:                   875630592 bytes
Total Bitrate:          29,95 Mbps
VIDEO:
Codec                   Bitrate             Description
-----                   -------             -----------
MPEG-4 AVC Video        26988 kbps          1080i / 29,970 fps / 16:9 / High Profile 4.1
AUDIO:
Codec                           Language        Bitrate         Description
-----                           --------        -------         -----------
DTS Audio                       Undetermined    768 kbps        2.0 / 48 kHz / 768 kbps / 24-bit
DTS Audio                       Undetermined    768 kbps        5.1 / 48 kHz / 768 kbps / 16-bit
FILES:
Name            Time In         Length          Size            Total Bitrate
----            -------         ------          ----            -------------
00007.M2TS      0:00:00.000     0:03:53.866     875630592     29953
CHAPTERS:
Number          Time In         Length          Avg Video Rate  Max 1-Sec Rate  Max 1-Sec Time  Max 5-Sec Rate  Max 5-Sec Time  Max 10Sec Rate  Max 10Sec Time  Avg Frame Size  Max Frame Size  Max Frame Time
------          -------         ------          --------------  --------------  --------------  --------------  --------------  --------------  --------------  --------------  --------------  --------------
1               0:00:00.000     0:03:50.029     27437 kbps     39296 kbps     00:00:24.290    30403 kbps     00:02:58.511    28864 kbps     00:03:27.140    114420 bytes   434585 bytes   00:01:28.488
2               0:03:50.029     0:00:03.837     66 kbps         67 kbps         00:03:50.230    0 kbps          00:00:00.000    0 kbps          00:00:00.000    282 bytes       785 bytes       00:03:50.396
STREAM DIAGNOSTICS:
File            PID             Type            Codec           Language                Seconds                 Bitrate                 Bytes           Packets
----            ---             ----            -----           --------                --------------          --------------          -------------   -----
00007.M2TS      4113 (0x1011)   0x1B            AVC                                     233,800                 26996                  788958720     4291881
00007.M2TS      4352 (0x1100)   0x82            DTS             und (Undetermined)      233,800                 754                     22040576      129144
00007.M2TS      4353 (0x1101)   0x82            DTS             und (Undetermined)      233,800                 754                     22040576      129144
<---- END FORUMS PASTE ---->
QUICK SUMMARY:
Disc Title: Gregorian LIVE! Masters Of Chant Final Chapter Tour
Disc Size: 39 057 807 208 bytes
Protection: AACS
BD-Java: No
Playlist: 01007.MPLS
Size: 875 630 592 bytes
Length: 0:03:53.866
Total Bitrate: 29,95 Mbps
Video: MPEG-4 AVC Video / 26988 kbps / 1080i / 29,970 fps / 16:9 / High Profile 4.1
Audio: Undetermined / DTS Audio / 2.0 / 48 kHz / 768 kbps / 24-bit
Audio: Undetermined / DTS Audio / 5.1 / 48 kHz / 768 kbps / 16-bit
********************
PLAYLIST: 00002.MPLS
********************
<--- BEGIN FORUMS PASTE --->
:
Total   Video
Title                                                           Codec   Length  Movie Size      Disc Size       Bitrate Bitrate Main Audio Track                          Secondary Audio Track
-----                                                           ------  ------- --------------  --------------  ------- ------- ------------------                        ---------------------
00002.MPLS                                                      AVC     0:03:29 741740544     39057807208  28,35   25,44   DTS 2.0 768Kbps (48kHz/24-bit)            DTS 5.1 768Kbps (48kHz/16-bit)
:
DISC INFO:
Disc Title:     Gregorian LIVE! Masters Of Chant Final Chapter Tour
Disc Size:      39057807208 bytes
Protection:     AACS
BD-Java:        No
BDInfo:         0.5.8
PLAYLIST REPORT:
Name:                   00002.MPLS
Length:                 0:03:29.309 (h:m:s.ms)
Size:                   741740544 bytes
Total Bitrate:          28,35 Mbps
VIDEO:
Codec                   Bitrate             Description
-----                   -------             -----------
MPEG-4 AVC Video        25440 kbps          1080i / 29,970 fps / 16:9 / High Profile 4.1
AUDIO:
Codec                           Language        Bitrate         Description
-----                           --------        -------         -----------
DTS Audio                       Undetermined    768 kbps        2.0 / 48 kHz / 768 kbps / 24-bit
DTS Audio                       Undetermined    768 kbps        5.1 / 48 kHz / 768 kbps / 16-bit
FILES:
Name            Time In         Length          Size            Total Bitrate
----            -------         ------          ----            -------------
00002.M2TS      0:00:00.000     0:03:29.309     741740544     28350
CHAPTERS:
Number          Time In         Length          Avg Video Rate  Max 1-Sec Rate  Max 1-Sec Time  Max 5-Sec Rate  Max 5-Sec Time  Max 10Sec Rate  Max 10Sec Time  Avg Frame Size  Max Frame Size  Max Frame Time
------          -------         ------          --------------  --------------  --------------  --------------  --------------  --------------  --------------  --------------  --------------  --------------
1               0:00:00.000     0:03:29.309     25440 kbps     42697 kbps     00:02:31.217    30022 kbps     00:02:20.573    28880 kbps     00:00:58.658    106121 bytes   406695 bytes   00:02:04.557
STREAM DIAGNOSTICS:
File            PID             Type            Codec           Language                Seconds                 Bitrate                 Bytes           Packets
----            ---             ----            -----           --------                --------------          --------------          -------------   -----
00002.M2TS      4113 (0x1011)   0x1B            AVC                                     209,242                 25448                  665592938     3620990
00002.M2TS      4352 (0x1100)   0x82            DTS             und (Undetermined)      209,242                 760                     19878912      116478
00002.M2TS      4353 (0x1101)   0x82            DTS             und (Undetermined)      209,242                 760                     19878912      116478
<---- END FORUMS PASTE ---->
QUICK SUMMARY:
Disc Title: Gregorian LIVE! Masters Of Chant Final Chapter Tour
Disc Size: 39 057 807 208 bytes
Protection: AACS
BD-Java: No
Playlist: 00002.MPLS
Size: 741 740 544 bytes
Length: 0:03:29.309
Total Bitrate: 28,35 Mbps
Video: MPEG-4 AVC Video / 25440 kbps / 1080i / 29,970 fps / 16:9 / High Profile 4.1
Audio: Undetermined / DTS Audio / 2.0 / 48 kHz / 768 kbps / 24-bit
Audio: Undetermined / DTS Audio / 5.1 / 48 kHz / 768 kbps / 16-bit
********************
PLAYLIST: 01002.MPLS
********************
<--- BEGIN FORUMS PASTE --->
:
Total   Video
Title                                                           Codec   Length  Movie Size      Disc Size       Bitrate Bitrate Main Audio Track                          Secondary Audio Track
-----                                                           ------  ------- --------------  --------------  ------- ------- ------------------                        ---------------------
01002.MPLS                                                      AVC     0:03:29 741740544     39057807208  28,35   25,44   DTS 2.0 768Kbps (48kHz/24-bit)            DTS 5.1 768Kbps (48kHz/16-bit)
:
DISC INFO:
Disc Title:     Gregorian LIVE! Masters Of Chant Final Chapter Tour
Disc Size:      39057807208 bytes
Protection:     AACS
BD-Java:        No
BDInfo:         0.5.8
PLAYLIST REPORT:
Name:                   01002.MPLS
Length:                 0:03:29.309 (h:m:s.ms)
Size:                   741740544 bytes
Total Bitrate:          28,35 Mbps
VIDEO:
Codec                   Bitrate             Description
-----                   -------             -----------
MPEG-4 AVC Video        25440 kbps          1080i / 29,970 fps / 16:9 / High Profile 4.1
AUDIO:
Codec                           Language        Bitrate         Description
-----                           --------        -------         -----------
DTS Audio                       Undetermined    768 kbps        2.0 / 48 kHz / 768 kbps / 24-bit
DTS Audio                       Undetermined    768 kbps        5.1 / 48 kHz / 768 kbps / 16-bit
FILES:
Name            Time In         Length          Size            Total Bitrate
----            -------         ------          ----            -------------
00002.M2TS      0:00:00.000     0:03:29.309     741740544     28350
CHAPTERS:
Number          Time In         Length          Avg Video Rate  Max 1-Sec Rate  Max 1-Sec Time  Max 5-Sec Rate  Max 5-Sec Time  Max 10Sec Rate  Max 10Sec Time  Avg Frame Size  Max Frame Size  Max Frame Time
------          -------         ------          --------------  --------------  --------------  --------------  --------------  --------------  --------------  --------------  --------------  --------------
1               0:00:00.000     0:03:27.006     25722 kbps     42697 kbps     00:02:31.217    30022 kbps     00:02:20.573    28880 kbps     00:00:58.658    107263 bytes   406695 bytes   00:02:04.557
2               0:03:27.006     0:00:02.302     85 kbps         116 kbps        00:03:27.006    0 kbps          00:00:00.000    0 kbps          00:00:00.000    367 bytes       5522 bytes     00:03:27.040
STREAM DIAGNOSTICS:
File            PID             Type            Codec           Language                Seconds                 Bitrate                 Bytes           Packets
----            ---             ----            -----           --------                --------------          --------------          -------------   -----
00002.M2TS      4113 (0x1011)   0x1B            AVC                                     209,242                 25448                  665592938     3620990
00002.M2TS      4352 (0x1100)   0x82            DTS             und (Undetermined)      209,242                 760                     19878912      116478
00002.M2TS      4353 (0x1101)   0x82            DTS             und (Undetermined)      209,242                 760                     19878912      116478
<---- END FORUMS PASTE ---->
QUICK SUMMARY:
Disc Title: Gregorian LIVE! Masters Of Chant Final Chapter Tour
Disc Size: 39 057 807 208 bytes
Protection: AACS
BD-Java: No
Playlist: 01002.MPLS
Size: 741 740 544 bytes
Length: 0:03:29.309
Total Bitrate: 28,35 Mbps
Video: MPEG-4 AVC Video / 25440 kbps / 1080i / 29,970 fps / 16:9 / High Profile 4.1
Audio: Undetermined / DTS Audio / 2.0 / 48 kHz / 768 kbps / 24-bit
Audio: Undetermined / DTS Audio / 5.1 / 48 kHz / 768 kbps / 16-bit
********************
PLAYLIST: 00004.MPLS
********************
<--- BEGIN FORUMS PASTE --->
:
Total   Video
Title                                                           Codec   Length  Movie Size      Disc Size       Bitrate Bitrate Main Audio Track                          Secondary Audio Track
-----                                                           ------  ------- --------------  --------------  ------- ------- ------------------                        ---------------------
00004.MPLS                                                      AVC     0:03:18 744087552     39057807208  30,01   27,04   DTS 2.0 768Kbps (48kHz/24-bit)            DTS 5.1 768Kbps (48kHz/16-bit)
:
DISC INFO:
Disc Title:     Gregorian LIVE! Masters Of Chant Final Chapter Tour
Disc Size:      39057807208 bytes
Protection:     AACS
BD-Java:        No
BDInfo:         0.5.8
PLAYLIST REPORT:
Name:                   00004.MPLS
Length:                 0:03:18.331 (h:m:s.ms)
Size:                   744087552 bytes
Total Bitrate:          30,01 Mbps
VIDEO:
Codec                   Bitrate             Description
-----                   -------             -----------
MPEG-4 AVC Video        27041 kbps          1080i / 29,970 fps / 16:9 / High Profile 4.1
AUDIO:
Codec                           Language        Bitrate         Description
-----                           --------        -------         -----------
DTS Audio                       Undetermined    768 kbps        2.0 / 48 kHz / 768 kbps / 24-bit
DTS Audio                       Undetermined    768 kbps        5.1 / 48 kHz / 768 kbps / 16-bit
FILES:
Name            Time In         Length          Size            Total Bitrate
----            -------         ------          ----            -------------
00004.M2TS      0:00:00.000     0:03:18.331     744087552     30014
CHAPTERS:
Number          Time In         Length          Avg Video Rate  Max 1-Sec Rate  Max 1-Sec Time  Max 5-Sec Rate  Max 5-Sec Time  Max 10Sec Rate  Max 10Sec Time  Avg Frame Size  Max Frame Size  Max Frame Time
------          -------         ------          --------------  --------------  --------------  --------------  --------------  --------------  --------------  --------------  --------------  --------------
1               0:00:00.000     0:03:18.331     27041 kbps     40853 kbps     00:02:47.767    30089 kbps     00:02:47.734    28859 kbps     00:02:47.700    112804 bytes   564973 bytes   00:01:22.282
STREAM DIAGNOSTICS:
File            PID             Type            Codec           Language                Seconds                 Bitrate                 Bytes           Packets
----            ---             ----            -----           --------                --------------          --------------          -------------   -----
00004.M2TS      4113 (0x1011)   0x1B            AVC                                     198,265                 27051                  670396399     3646905
00004.M2TS      4352 (0x1100)   0x82            DTS             und (Undetermined)      198,265                 757                     18750464      109866
00004.M2TS      4353 (0x1101)   0x82            DTS             und (Undetermined)      198,265                 757                     18750464      109866
<---- END FORUMS PASTE ---->
QUICK SUMMARY:
Disc Title: Gregorian LIVE! Masters Of Chant Final Chapter Tour
Disc Size: 39 057 807 208 bytes
Protection: AACS
BD-Java: No
Playlist: 00004.MPLS
Size: 744 087 552 bytes
Length: 0:03:18.331
Total Bitrate: 30,01 Mbps
Video: MPEG-4 AVC Video / 27041 kbps / 1080i / 29,970 fps / 16:9 / High Profile 4.1
Audio: Undetermined / DTS Audio / 2.0 / 48 kHz / 768 kbps / 24-bit
Audio: Undetermined / DTS Audio / 5.1 / 48 kHz / 768 kbps / 16-bit
********************
PLAYLIST: 01004.MPLS
********************
<--- BEGIN FORUMS PASTE --->
:
Total   Video
Title                                                           Codec   Length  Movie Size      Disc Size       Bitrate Bitrate Main Audio Track                          Secondary Audio Track
-----                                                           ------  ------- --------------  --------------  ------- ------- ------------------                        ---------------------
01004.MPLS                                                      AVC     0:03:18 744087552     39057807208  30,01   27,04   DTS 2.0 768Kbps (48kHz/24-bit)            DTS 5.1 768Kbps (48kHz/16-bit)
:
DISC INFO:
Disc Title:     Gregorian LIVE! Masters Of Chant Final Chapter Tour
Disc Size:      39057807208 bytes
Protection:     AACS
BD-Java:        No
BDInfo:         0.5.8
PLAYLIST REPORT:
Name:                   01004.MPLS
Length:                 0:03:18.331 (h:m:s.ms)
Size:                   744087552 bytes
Total Bitrate:          30,01 Mbps
VIDEO:
Codec                   Bitrate             Description
-----                   -------             -----------
MPEG-4 AVC Video        27041 kbps          1080i / 29,970 fps / 16:9 / High Profile 4.1
AUDIO:
Codec                           Language        Bitrate         Description
-----                           --------        -------         -----------
DTS Audio                       Undetermined    768 kbps        2.0 / 48 kHz / 768 kbps / 24-bit
DTS Audio                       Undetermined    768 kbps        5.1 / 48 kHz / 768 kbps / 16-bit
FILES:
Name            Time In         Length          Size            Total Bitrate
----            -------         ------          ----            -------------
00004.M2TS      0:00:00.000     0:03:18.331     744087552     30014
CHAPTERS:
Number          Time In         Length          Avg Video Rate  Max 1-Sec Rate  Max 1-Sec Time  Max 5-Sec Rate  Max 5-Sec Time  Max 10Sec Rate  Max 10Sec Time  Avg Frame Size  Max Frame Size  Max Frame Time
------          -------         ------          --------------  --------------  --------------  --------------  --------------  --------------  --------------  --------------  --------------  --------------
1               0:00:00.000     0:03:15.995     27363 kbps     40853 kbps     00:02:47.767    30089 kbps     00:02:47.734    28859 kbps     00:02:47.700    114107 bytes   564973 bytes   00:01:22.282
2               0:03:15.995     0:00:02.335     64 kbps         67 kbps         00:03:15.995    0 kbps          00:00:00.000    0 kbps          00:00:00.000    274 bytes       787 bytes       00:03:16.162
STREAM DIAGNOSTICS:
File            PID             Type            Codec           Language                Seconds                 Bitrate                 Bytes           Packets
----            ---             ----            -----           --------                --------------          --------------          -------------   -----
00004.M2TS      4113 (0x1011)   0x1B            AVC                                     198,265                 27051                  670396399     3646905
00004.M2TS      4352 (0x1100)   0x82            DTS             und (Undetermined)      198,265                 757                     18750464      109866
00004.M2TS      4353 (0x1101)   0x82            DTS             und (Undetermined)      198,265                 757                     18750464      109866
<---- END FORUMS PASTE ---->
QUICK SUMMARY:
Disc Title: Gregorian LIVE! Masters Of Chant Final Chapter Tour
Disc Size: 39 057 807 208 bytes
Protection: AACS
BD-Java: No
Playlist: 01004.MPLS
Size: 744 087 552 bytes
Length: 0:03:18.331
Total Bitrate: 30,01 Mbps
Video: MPEG-4 AVC Video / 27041 kbps / 1080i / 29,970 fps / 16:9 / High Profile 4.1
Audio: Undetermined / DTS Audio / 2.0 / 48 kHz / 768 kbps / 24-bit
Audio: Undetermined / DTS Audio / 5.1 / 48 kHz / 768 kbps / 16-bit
********************
PLAYLIST: 00006.MPLS
********************
<--- BEGIN FORUMS PASTE --->
:
Total   Video
Title                                                           Codec   Length  Movie Size      Disc Size       Bitrate Bitrate Main Audio Track                          Secondary Audio Track
-----                                                           ------  ------- --------------  --------------  ------- ------- ------------------                        ---------------------
00006.MPLS                                                      AVC     0:03:03 675674112     39057807208  29,52   27,12   DTS 2.0 256Kbps (48kHz/24-bit)            DTS 5.1 768Kbps (48kHz/16-bit)
:
DISC INFO:
Disc Title:     Gregorian LIVE! Masters Of Chant Final Chapter Tour
Disc Size:      39057807208 bytes
Protection:     AACS
BD-Java:        No
BDInfo:         0.5.8
PLAYLIST REPORT:
Name:                   00006.MPLS
Length:                 0:03:03.082 (h:m:s.ms)
Size:                   675674112 bytes
Total Bitrate:          29,52 Mbps
VIDEO:
Codec                   Bitrate             Description
-----                   -------             -----------
MPEG-4 AVC Video        27118 kbps          1080i / 29,970 fps / 16:9 / High Profile 4.1
AUDIO:
Codec                           Language        Bitrate         Description
-----                           --------        -------         -----------
DTS Audio                       Undetermined    256 kbps        2.0 / 48 kHz / 256 kbps / 24-bit
DTS Audio                       Undetermined    768 kbps        5.1 / 48 kHz / 768 kbps / 16-bit
FILES:
Name            Time In         Length          Size            Total Bitrate
----            -------         ------          ----            -------------
00006.M2TS      0:00:00.000     0:03:03.082     675674112     29524
CHAPTERS:
Number          Time In         Length          Avg Video Rate  Max 1-Sec Rate  Max 1-Sec Time  Max 5-Sec Rate  Max 5-Sec Time  Max 10Sec Rate  Max 10Sec Time  Avg Frame Size  Max Frame Size  Max Frame Time
------          -------         ------          --------------  --------------  --------------  --------------  --------------  --------------  --------------  --------------  --------------  --------------
1               0:00:00.000     0:03:03.082     27118 kbps     39429 kbps     00:00:26.793    29721 kbps     00:01:14.507    28998 kbps     00:01:16.843    113124 bytes   601736 bytes   00:00:18.451
STREAM DIAGNOSTICS:
File            PID             Type            Codec           Language                Seconds                 Bitrate                 Bytes           Packets
----            ---             ----            -----           --------                --------------          --------------          -------------   -----
00006.M2TS      4113 (0x1011)   0x1B            AVC                                     183,016                 27128                  620598012     3375985
00006.M2TS      4352 (0x1100)   0x82            DTS             und (Undetermined)      183,016                 251                     5738860       33758
00006.M2TS      4353 (0x1101)   0x82            DTS             und (Undetermined)      183,016                 756                     17284096      101274
<---- END FORUMS PASTE ---->
QUICK SUMMARY:
Disc Title: Gregorian LIVE! Masters Of Chant Final Chapter Tour
Disc Size: 39 057 807 208 bytes
Protection: AACS
BD-Java: No
Playlist: 00006.MPLS
Size: 675 674 112 bytes
Length: 0:03:03.082
Total Bitrate: 29,52 Mbps
Video: MPEG-4 AVC Video / 27118 kbps / 1080i / 29,970 fps / 16:9 / High Profile 4.1
Audio: Undetermined / DTS Audio / 2.0 / 48 kHz / 256 kbps / 24-bit
Audio: Undetermined / DTS Audio / 5.1 / 48 kHz / 768 kbps / 16-bit
********************
PLAYLIST: 01006.MPLS
********************
<--- BEGIN FORUMS PASTE --->
:
Total   Video
Title                                                           Codec   Length  Movie Size      Disc Size       Bitrate Bitrate Main Audio Track                          Secondary Audio Track
-----                                                           ------  ------- --------------  --------------  ------- ------- ------------------                        ---------------------
01006.MPLS                                                      AVC     0:03:03 675674112     39057807208  29,52   27,12   DTS 2.0 256Kbps (48kHz/24-bit)            DTS 5.1 768Kbps (48kHz/16-bit)
:
DISC INFO:
Disc Title:     Gregorian LIVE! Masters Of Chant Final Chapter Tour
Disc Size:      39057807208 bytes
Protection:     AACS
BD-Java:        No
BDInfo:         0.5.8
PLAYLIST REPORT:
Name:                   01006.MPLS
Length:                 0:03:03.082 (h:m:s.ms)
Size:                   675674112 bytes
Total Bitrate:          29,52 Mbps
VIDEO:
Codec                   Bitrate             Description
-----                   -------             -----------
MPEG-4 AVC Video        27118 kbps          1080i / 29,970 fps / 16:9 / High Profile 4.1
AUDIO:
Codec                           Language        Bitrate         Description
-----                           --------        -------         -----------
DTS Audio                       Undetermined    256 kbps        2.0 / 48 kHz / 256 kbps / 24-bit
DTS Audio                       Undetermined    768 kbps        5.1 / 48 kHz / 768 kbps / 16-bit
FILES:
Name            Time In         Length          Size            Total Bitrate
----            -------         ------          ----            -------------
00006.M2TS      0:00:00.000     0:03:03.082     675674112     29524
CHAPTERS:
Number          Time In         Length          Avg Video Rate  Max 1-Sec Rate  Max 1-Sec Time  Max 5-Sec Rate  Max 5-Sec Time  Max 10Sec Rate  Max 10Sec Time  Avg Frame Size  Max Frame Size  Max Frame Time
------          -------         ------          --------------  --------------  --------------  --------------  --------------  --------------  --------------  --------------  --------------  --------------
1               0:00:00.000     0:02:59.979     27584 kbps     39429 kbps     00:00:26.793    29721 kbps     00:01:14.507    28998 kbps     00:01:16.843    115027 bytes   601736 bytes   00:00:18.451
2               0:02:59.979     0:00:03.103     65 kbps         67 kbps         00:03:01.114    0 kbps          00:00:00.000    0 kbps          00:00:00.000    278 bytes       785 bytes       00:03:01.281
STREAM DIAGNOSTICS:
File            PID             Type            Codec           Language                Seconds                 Bitrate                 Bytes           Packets
----            ---             ----            -----           --------                --------------          --------------          -------------   -----
00006.M2TS      4113 (0x1011)   0x1B            AVC                                     183,016                 27128                  620598012     3375985
00006.M2TS      4352 (0x1100)   0x82            DTS             und (Undetermined)      183,016                 251                     5738860       33758
00006.M2TS      4353 (0x1101)   0x82            DTS             und (Undetermined)      183,016                 756                     17284096      101274
<---- END FORUMS PASTE ---->
QUICK SUMMARY:
Disc Title: Gregorian LIVE! Masters Of Chant Final Chapter Tour
Disc Size: 39 057 807 208 bytes
Protection: AACS
BD-Java: No
Playlist: 01006.MPLS
Size: 675 674 112 bytes
Length: 0:03:03.082
Total Bitrate: 29,52 Mbps
Video: MPEG-4 AVC Video / 27118 kbps / 1080i / 29,970 fps / 16:9 / High Profile 4.1
Audio: Undetermined / DTS Audio / 2.0 / 48 kHz / 256 kbps / 24-bit
Audio: Undetermined / DTS Audio / 5.1 / 48 kHz / 768 kbps / 16-bit
********************
PLAYLIST: 00000.MPLS
********************
<--- BEGIN FORUMS PASTE --->
:
Total   Video
Title                                                           Codec   Length  Movie Size      Disc Size       Bitrate Bitrate Main Audio Track                          Secondary Audio Track
-----                                                           ------  ------- --------------  --------------  ------- ------- ------------------                        ---------------------
00000.MPLS                                                      AVC     0:01:20 165537792     39057807208  16,37   13,94   DTS 2.0 768Kbps (48kHz/16-bit)            DTS 5.1 768Kbps (48kHz/16-bit)
:
DISC INFO:
Disc Title:     Gregorian LIVE! Masters Of Chant Final Chapter Tour
Disc Size:      39057807208 bytes
Protection:     AACS
BD-Java:        No
BDInfo:         0.5.8
PLAYLIST REPORT:
Name:                   00000.MPLS
Length:                 0:01:20.914 (h:m:s.ms)
Size:                   165537792 bytes
Total Bitrate:          16,37 Mbps
VIDEO:
Codec                   Bitrate             Description
-----                   -------             -----------
MPEG-4 AVC Video        13937 kbps          1080i / 29,970 fps / 16:9 / High Profile 4.1
AUDIO:
Codec                           Language        Bitrate         Description
-----                           --------        -------         -----------
DTS Audio                       English         768 kbps        2.0 / 48 kHz / 768 kbps / 16-bit
DTS Audio                       English         768 kbps        5.1 / 48 kHz / 768 kbps / 16-bit
FILES:
Name            Time In         Length          Size            Total Bitrate
----            -------         ------          ----            -------------
00000.M2TS      0:00:00.000     0:01:20.914     165537792     16367
CHAPTERS:
Number          Time In         Length          Avg Video Rate  Max 1-Sec Rate  Max 1-Sec Time  Max 5-Sec Rate  Max 5-Sec Time  Max 10Sec Rate  Max 10Sec Time  Avg Frame Size  Max Frame Size  Max Frame Time
------          -------         ------          --------------  --------------  --------------  --------------  --------------  --------------  --------------  --------------  --------------  --------------
1               0:00:00.000     0:01:20.914     13937 kbps     16844 kbps     00:01:08.168    14853 kbps     00:01:05.098    14462 kbps     00:00:59.392    58129 bytes    209171 bytes   00:00:48.581
STREAM DIAGNOSTICS:
File            PID             Type            Codec           Language                Seconds                 Bitrate                 Bytes           Packets
----            ---             ----            -----           --------                --------------          --------------          -------------   -----
00000.M2TS      4113 (0x1011)   0x1B            AVC                                     80,847                  13949                  140963983     767518
00000.M2TS      4352 (0x1100)   0x82            DTS             eng (English)           80,847                  769                     7767040       45510
00000.M2TS      4353 (0x1101)   0x82            DTS             eng (English)           80,847                  769                     7767040       45510
<---- END FORUMS PASTE ---->
QUICK SUMMARY:
Disc Title: Gregorian LIVE! Masters Of Chant Final Chapter Tour
Disc Size: 39 057 807 208 bytes
Protection: AACS
BD-Java: No
Playlist: 00000.MPLS
Size: 165 537 792 bytes
Length: 0:01:20.914
Total Bitrate: 16,37 Mbps
Video: MPEG-4 AVC Video / 13937 kbps / 1080i / 29,970 fps / 16:9 / High Profile 4.1
Audio: English / DTS Audio / 2.0 / 48 kHz / 768 kbps / 16-bit
Audio: English / DTS Audio / 5.1 / 48 kHz / 768 kbps / 16-bit
********************
PLAYLIST: 01010.MPLS
********************
<--- BEGIN FORUMS PASTE --->
:
Total   Video
Title                                                           Codec   Length  Movie Size      Disc Size       Bitrate Bitrate Main Audio Track                          Secondary Audio Track
-----                                                           ------  ------- --------------  --------------  ------- ------- ------------------                        ---------------------
01010.MPLS                                                      AVC     0:00:22 14032896      39057807208  5,04    2,83    LPCM 2.0 1536Kbps (48kHz/16-bit)
:
DISC INFO:
Disc Title:     Gregorian LIVE! Masters Of Chant Final Chapter Tour
Disc Size:      39057807208 bytes
Protection:     AACS
BD-Java:        No
BDInfo:         0.5.8
PLAYLIST REPORT:
Name:                   01010.MPLS
Length:                 0:00:22.288 (h:m:s.ms)
Size:                   14032896 bytes
Total Bitrate:          5,04 Mbps
VIDEO:
Codec                   Bitrate             Description
-----                   -------             -----------
MPEG-4 AVC Video        2829 kbps           1080i / 29,970 fps / 16:9 / High Profile 4.1
AUDIO:
Codec                           Language        Bitrate         Description
-----                           --------        -------         -----------
LPCM Audio                      Undetermined    1536 kbps       2.0 / 48 kHz / 1536 kbps / 16-bit
FILES:
Name            Time In         Length          Size            Total Bitrate
----            -------         ------          ----            -------------
00009.M2TS      0:00:00.000     0:00:05.038     5124096       8136
00010.M2TS      0:00:05.038     0:00:05.071     5240832       8267
00011.M2TS      0:00:10.110     0:00:06.072     1873920       2469
00012.M2TS      0:00:16.182     0:00:06.106     1794048       2350
CHAPTERS:
Number          Time In         Length          Avg Video Rate  Max 1-Sec Rate  Max 1-Sec Time  Max 5-Sec Rate  Max 5-Sec Time  Max 10Sec Rate  Max 10Sec Time  Avg Frame Size  Max Frame Size  Max Frame Time
------          -------         ------          --------------  --------------  --------------  --------------  --------------  --------------  --------------  --------------  --------------  --------------
1               0:00:00.000     0:00:08.007     5712 kbps      13599 kbps     00:00:05.005    6254 kbps      00:00:00.967    0 kbps          00:00:00.000    23726 bytes    227635 bytes   00:00:07.841
2               0:00:08.007     0:00:-02.-969   0 kbps          0 kbps          00:00:00.000    0 kbps          00:00:00.000    0 kbps          00:00:00.000    0 bytes         0 bytes         00:00:00.000
3               0:00:05.038     0:00:08.007     1724 kbps      12534 kbps     00:00:08.742    2759 kbps      00:00:08.041    0 kbps          00:00:00.000    11506 bytes    227635 bytes   00:00:08.775
4               0:00:13.046     0:00:-02.-936   0 kbps          0 kbps          00:00:00.000    0 kbps          00:00:00.000    0 kbps          00:00:00.000    0 bytes         0 bytes         00:00:00.000
5               0:00:10.110     0:00:08.008     277 kbps        968 kbps        00:00:16.249    442 kbps        00:00:13.113    0 kbps          00:00:00.000    1834 bytes     16097 bytes    00:00:14.347
6               0:00:18.118     0:00:-01.-935   0 kbps          0 kbps          00:00:00.000    0 kbps          00:00:00.000    0 kbps          00:00:00.000    0 bytes         0 bytes         00:00:00.000
7               0:00:16.182     0:00:06.106     211 kbps        966 kbps        00:00:20.186    0 kbps          00:00:00.000    0 kbps          00:00:00.000    1308 bytes     10438 bytes    00:00:18.985
STREAM DIAGNOSTICS:
File            PID             Type            Codec           Language                Seconds                 Bitrate                 Bytes           Packets
----            ---             ----            -----           --------                --------------          --------------          -------------   -----
00009.M2TS      4113 (0x1011)   0x1B            AVC                                     4,972                   5694                   3538597       19307
00009.M2TS      4352 (0x1100)   0x80            LPCM            und (Undetermined)      4,972                   1834                   1139448       7092
00010.M2TS      4113 (0x1011)   0x1B            AVC                                     5,005                   6007                   3758219       20538
00010.M2TS      4352 (0x1100)   0x80            LPCM            und (Undetermined)      5,005                   1667                   1043048       6492
00011.M2TS      4113 (0x1011)   0x1B            AVC                                     6,006                   380                     285649         1636
00011.M2TS      4352 (0x1100)   0x80            LPCM            und (Undetermined)      6,006                   1672                   1255128       7812
00012.M2TS      4113 (0x1011)   0x1B            AVC                                     6,039                   396                     299115         1757
00012.M2TS      4352 (0x1100)   0x80            LPCM            und (Undetermined)      6,039                   1553                   1172224       7296
<---- END FORUMS PASTE ---->
QUICK SUMMARY:
Disc Title: Gregorian LIVE! Masters Of Chant Final Chapter Tour
Disc Size: 39 057 807 208 bytes
Protection: AACS
BD-Java: No
Playlist: 01010.MPLS
Size: 14 032 896 bytes
Length: 0:00:22.288
Total Bitrate: 5,04 Mbps
Video: MPEG-4 AVC Video / 2829 kbps / 1080i / 29,970 fps / 16:9 / High Profile 4.1
Audio: Undetermined / LPCM Audio / 2.0 / 48 kHz / 1536 kbps / 16-bit
.
? - , . .
Download
.torrent
  ·   torrent ()
, -, -
[]  [] 

betoxfx

: 8 5

: 310


betoxfx · 22--16 04:19 ( 3 )

[] 

Please more seed and more band, for download.
Thanks a lot dear mates .
[]  [] 

CHKA1961

Moderator gray

: 10 11

: 6870

CHKA1961 · 22--16 09:41 ( 5 )

[] 

betoxfx ():
71661090Please more seed

, !
[]  [] 

gregi5000

: 8 1

: 10


gregi5000 · 22--16 23:22 ( 13 )

[] 

Please why is live concert only in 2.0? Bonuses are 5.1 DTS but concert only 2.0 DTS
[]  [] 

DNC

Top Seed 01* 40r

: 8 4

: 528

DNC · 23--16 11:23 ( 12 )

[] 

gregi5000 ():
71667248Please why is live concert only in 2.0? Bonuses are 5.1 DTS but concert only 2.0 DTS
because fail edition, https://www.facebook.com/gregorianofficial/posts/1176018509110911
[]  [] 

gregi5000

: 8 1

: 10


gregi5000 · 23--16 15:22 ( 3 )

[] 

DNC ():
71669931
gregi5000 ():
71667248Please why is live concert only in 2.0? Bonuses are 5.1 DTS but concert only 2.0 DTS
because fail edition, https://www.facebook.com/gregorianofficial/posts/1176018509110911
THX for answer. So i hope that will be on tracker correct version.
[]  [] 

gregi5000

: 8 1

: 10


gregi5000 · 02--16 16:54 ( 10 )

[] 

PLease willl be 5.1 surround of main concert?
[]  [] 

CHKA1961

Moderator gray

: 10 11

: 6870

CHKA1961 · 03--16 03:39 ( 10 )

[] 

gregi5000
CHKA1961 ():
71640467: Ear music
.
? ? ? .
" ", ?
[]  [] 

betoxfx

: 8 5

: 310


betoxfx · 11--16 19:48 ( 8 )

[] 

DTS-HD MA 5.1 rutracker?
Will we have the patched version with DTS-HD MA 5.1 audio here at rutracker?
Thanxs a lot dear mate.
[]  [] 

vladikscooter

: 9 7

: 34


vladikscooter · 24--16 17:57 ( 12 )

[] 

.
.
[]  [] 

gregi5000

: 8 1

: 10


gregi5000 · 13--16 18:40 ( 19 )

[] 

Still no 5.1 surround?
[]  [] 

CHKA1961

Moderator gray

: 10 11

: 6870

CHKA1961 · 13--16 20:51 ( 2 11 .)

[] 

gregi5000
CHKA1961 ():
71741833 ? ? ? .
" " ?
[]  [] 

fatseas

: 6 7

: 27

fatseas · 21--17 12:12 ( 9 )

[] 

yep unfortunaly i noticed that the concert is only in stereo after i download the 36g file hope someone up the right version.
[]  [] 

betoxfx

: 8 5

: 310


betoxfx · 01--17 02:19 ( 9 )

[] 

There was a press error and recall was made for who got this BD, now only if someone restores the BD with DTS HD-MA 5.1 audio.
[]  [] 

betoxfx

: 8 5

: 310


betoxfx · 01--17 06:27 ( 2 )

[] 

- DTS-HD MA 5.1 , , BD ISO?
Att.
BetoXFX.
Does anyone have the DTS-HD MA 5.1 audio from this show that I can upload so we can author the BD ISO?
Att.
BetoXFX.
[]  [] 

betoxfx

: 8 5

: 310


betoxfx · 15--18 23:43 ( 5 14 , . 15--18 23:43)

[] 

...
[]  [] 
 
Loading...
Error