Ковбой Бибоп: Достучаться до небес / Cowboy Bebop: Knockin' on Heaven's door [Movie] [Без хардсаба] [RUS(int), JAP+SUB] [2001, приключения, комедия, фантастика, BDRip] [720p] [HD]

Страницы:  1

Ответить
Автор
Сообщение

Reigar.

Top Loader 04* 1TB

Стаж: 7 лет 8 месяцев

Сообщений: 207

Reigar. · 10-Мар-13 00:09 (5 лет 5 месяцев назад, ред. 10-Мар-13 01:34)

Страна: Япония
Год выпуска: 2001 г.
Жанр: приключения, комедия, фантастика
Продолжительность: 114 мин.
Режиссер: Ватанабэ Синъитиро

Студия:
Перевод:
  1. русские субтитры от 5viN

Озвучка:
  1. многоголосая от ВидеоСервис
  2. одноголосая (муж.) от Azazel (SHIZA)

Описание: Накануне Хэллоуина на Марсе произошла трагедия: было применено неизвестное биологическое оружие, и сотни людей погибли или оказались в больнице. За голову террориста назначили баснословную награду, и команда «охотников за головами» с корабля Bebop 268170 решила взяться за это прибыльное задание.
По ходу расследования Спайк Шпигель знакомится с Электрой, которая также ищет жестокого преступника. Его зовут Винсент, раньше они служили вместе, поэтому мотивы Электры не так просты. Фэй Валентайн тоже не осталась в стороне, но она не подозревает, что ей грозит смертельная опасность: Винсент стремится отомстить всем людям, и приближающийся День Всех Святых вполне подходит для этой цели.
Фильм «Достучаться до небес» лучше всего смотреть после сериала, но и сам по себе он представляет несомненный интерес: захватывающий сюжет, в котором экшен-сцены перемежаются яркими диалогами, блюзово-джазовый саундтрек Ёко Канно и великолепная прорисовка мира будущего. Поклонники «Ковбоя Бибопа» найдут здесь множество отсылок к сериалу и встретят знакомых второстепенных персонажей. В фильме каждый из главных героев получил возможность проявить себя, однако большая часть времени отведена Спайку, кроме того, его характер великолепно раскрывается в финальной композиции Gotta Knock A Little Harde.

© Расселл Д. Джонс, World Art
Качество: BDRip
Рип: OZC
Тип релиза: Без хардсаба
Формат видео: MKV
Видео: x264 [8bit], 1280x688, ~2650 kbps, 23,976 fps
Аудио RUS#1: AC-3, 448 kbps, 48000 Hz, 6 ch - ВидеоСервис
Аудио RUS#2: AAC, 192 kbps, 48000 Hz, 2 ch - Azazel
Аудио JAP: AC-3, 448 kbps, 48000 Hz, 6 ch
Подробные тех. данные
Формат : Matroska
Версия формата : Version 2
Размер файла : 2,35 Гбайт
Продолжительность : 1 ч. 54 м.
Режим общего битрейта : Переменный
Общий поток : 2925 Кбит/сек
Название фильма : Cowboy Bebop - Tengoku no Tobira (2001) (Knockin` on Heaven`s Door)
Дата кодирования : UTC 2013-03-09 19:29:51
Программа кодирования : mkvmerge v5.8.0 ('No Sleep / Pillow') built on Sep 2 2012 15:37:04
Библиотека кодирования : libebml v1.2.3 + libmatroska v1.3.0
Видео
Идентификатор : 1
Формат : AVC
Формат/Информация : Advanced Video Codec
Профиль формата : [email protected]
Параметр CABAC формата : Да
Параметр ReFrames формата : 3 кадра
Идентификатор кодека : V_MPEG4/ISO/AVC
Продолжительность : 1 ч. 54 м.
Вид битрейта : Переменный
Максимальный битрейт : 40,0 Мбит/сек
Ширина : 1280 пикселей
Высота : 688 пикселей
Соотношение сторон : 1,85:1
Режим частоты кадров : Постоянный
Частота кадров : 23,976 кадра/сек
Цветовое пространство : YUV
Субдискретизация насыщенности : 4:2:0
Битовая глубина : 8 бит
Тип развёртки : Прогрессивная
Библиотека кодирования : x264 core 80 r1376M 3feaec2
Настройки программы : cabac=1 / ref=4 / deblock=1:1:1 / analyse=0x3:0x113 / me=umh / subme=8 / psy=1 / psy_rd=0.4:0.0 / mixed_ref=1 / me_range=16 / chroma_me=1 / trellis=1 / 8x8dct=1 / cqm=0 / deadzone=21,11 / fast_pskip=1 / chroma_qp_offset=-2 / threads=6 / sliced_threads=0 / slices=4 / nr=0 / decimate=1 / mbaff=0 / constrained_intra=0 / bframes=3 / b_pyramid=1 / b_adapt=2 / b_bias=0 / direct=3 / wpredb=1 / wpredp=2 / keyint=24 / keyint_min=2 / scenecut=40 / rc_lookahead=24 / rc=crf / mbtree=1 / crf=20.0 / qcomp=0.60 / qpmin=10 / qpmax=51 / qpstep=4 / vbv_maxrate=40000 / vbv_bufsize=30000 / ip_ratio=1.40 / aq=1:0.60
Язык : English
Default : Да
Forced : Нет
Аудио #1
Идентификатор : 2
Формат : AC-3
Формат/Информация : Audio Coding 3
Расширение режима : CM (complete main)
Параметр Endianness формата : Big
Идентификатор кодека : A_AC3
Продолжительность : 1 ч. 54 м.
Вид битрейта : Постоянный
Битрейт : 448 Кбит/сек
Каналы : 6 каналов
Расположение каналов : Front: L C R, Side: L R, LFE
Частота : 48,0 КГц
Битовая глубина : 16 бит
Метод сжатия : С потерями
Размер потока : 368 Мбайт (15%)
Заголовок : ВидеоСервис
Язык : Russian
Default : Да
Forced : Нет
Аудио #2
Идентификатор : 3
Формат : AAC
Формат/Информация : Advanced Audio Codec
Профиль формата : LC
Идентификатор кодека : A_AAC
Продолжительность : 1 ч. 54 м.
Каналы : 2 канала
Расположение каналов : Front: L R
Частота : 48,0 КГц
Метод сжатия : С потерями
Заголовок : Shiza
Язык : Russian
Default : Нет
Forced : Нет
Аудио #3
Идентификатор : 4
Формат : AC-3
Формат/Информация : Audio Coding 3
Расширение режима : CM (complete main)
Параметр Endianness формата : Big
Идентификатор кодека : A_AC3
Продолжительность : 1 ч. 54 м.
Вид битрейта : Постоянный
Битрейт : 448 Кбит/сек
Каналы : 6 каналов
Расположение каналов : Front: L C R, Side: L R, LFE
Частота : 48,0 КГц
Битовая глубина : 16 бит
Метод сжатия : С потерями
Размер потока : 368 Мбайт (15%)
Заголовок : Original
Язык : Japanese
Default : Нет
Forced : Нет
Меню
00:00:00.000 : :Start
00:06:26.100 : :Shogi
00:08:31.433 : :Chemical Tanker Explosion
00:11:45.166 : :CBC News
00:17:26.800 : :Lee Samson, Computer Hacker
00:19:34.500 : :The Bean-Seller
00:27:21.833 : :Western Movies
00:29:23.866 : :Purgatory
00:32:27.033 : :Masof Team 7
00:35:22.366 : :"I've Found You, Hacker Boy"
00:37:10.333 : :Lymph Corpuscles
00:39:00.033 : :Colonel Electra Ovilo
00:40:17.366 : :Taking Out The Trash
00:44:50.333 : :Micro-Robots
00:46:45.200 : :"I've Found Lee!"
00:49:12.166 : :Game's Over
00:55:01.533 : :Monorail Battle
01:00:24.066 : :Swimming Bird
01:06:18.966 : :Hacking Into Cherious
01:10:07.866 : :Rasheed Explains All
01:17:45.833 : :In Protective Custody
01:21:40.533 : :Vincent's Next Trick
01:25:41.366 : :Breaking Out Of Cherious
01:30:01.500 : :The Army Takes Over
01:32:44.500 : :Air Show
01:40:59.200 : :The Bridge To Heaven
01:43:35.133 : :A Very Nasty Haloween Party
01:47:09.633 : :Vincent's Second Death
01:50:02.500 : :End Credits
Download
Для скачивания .torrent файлов необходима регистрация
Сайт не распространяет и не хранит электронные версии произведений, а лишь предоставляет доступ к создаваемому пользователями каталогу ссылок на торрент-файлы, которые содержат только списки хеш-сумм
[Профиль]  [ЛС] 

Moadibb

Стаж: 9 лет 7 месяцев

Сообщений: 27

Moadibb · 08-Сен-17 22:46 (спустя 4 года 5 месяцев)

[Цитировать] 

Нельзя ли добавить Русскую дорожку от НТВ+ ?
[Профиль]  [ЛС] 

Moadibb

Стаж: 9 лет 7 месяцев

Сообщений: 27

Moadibb · 13-Ноя-17 08:41 (спустя 2 месяца 4 дня)

[Цитировать] 

Reigar.
Эм , уважаемый автор релиза =) возможно ли добавить в релиз озвучку от "НТВ+" она же "1+1"
А то в "Видео Сервисе" Озвучка идёт поверх Английского дубляжа .
Буду очень благодарен .
[Профиль]  [ЛС] 
 
Ответить
Loading...
Error