Путешествие по реке Чусовая (Сергей Ермоленко) [2013, путешествия, HDTV 1080i]

Страницы:  1

Ответить
Автор
Сообщение

karatak1

Стаж: 9 лет

Сообщений: 577


karatak1 · 30-Апр-17 17:25 (1 год 3 месяца назад, ред. 23-Июл-18 19:49)

Путешествие по реке Чусовая
Год выпуска: 2013
Страна: Россия
Студия: RTG production
Жанр: путешествия
Продолжительность: 00:27:30
Перевод: Не требуется
Режиссер: Сергей Ермоленко
Описание: Река Чусовая — легенда Урала. Это единственный водный поток, который пересекает Уральский хребет. В водах Чусовой отразилась вся история освоения русскими колонистами горной страны. По ней пролегал путь экспедиции покорителя Сибири Ермака Тимофеевича. Она долгое время была главной транспортной артерией, по которой сплавляли свои железные караваны в Россию влиятельные русские промышленники Демидовы. А сегодня по реке Чусовой пролегают увлекательные туристические маршруты.
Тип релиза: HDTV 1080i
Контейнер: ts
Видео: AVC, PAL, 1920x1080, 16x9, 8631 Кbps, 25fps
Аудио: Русский, MP2, 2Ch, 48KHz, 192kbps
MediaInfo
Общее
Идентификатор : 1 (0x1)
Полное имя : H:\Путешествие по реке Чусовая(RTGHD2013New).ts
Формат : MPEG-TS
Размер файла : 1,78 Гбайт
Продолжительность : 27 м. 29 с.
Режим общего битрейта : Переменный
Общий поток : 9284 Кбит/сек
Видео
Идентификатор : 202 (0xCA)
Идентификатор меню : 20102 (0x4E86)
Формат : AVC
Формат/Информация : Advanced Video Codec
Профиль формата : [email protected]
Настройки формата : CABAC / 4 Ref Frames
Параметр CABAC формата : Да
Параметр RefFrames формата : 4 кадра
Идентификатор кодека : 27
Продолжительность : 27 м. 29 с.
Битрейт : 8631 Кбит/сек
Ширина : 1920 пикселей
Высота : 1080 пикселей
Соотношение сторон : 16:9
Частота кадров : 25,000 кадров/сек
Стандарт вещания : Component
Цветовое пространство : YUV
Субдискретизация насыщенности : 4:2:0
Битовая глубина : 8 бит
Тип развёртки : Чересстрочная
Метод сохранения типа развёртки : Раздельные поля
Порядок развёртки : Верхнее поле первое
Бит/(Пиксели*Кадры) : 0.166
Размер потока : 1,66 Гбайт (93%)
Цветовой диапазон : Limited
Основные цвета : BT.709
Характеристики трансфера : BT.709
Коэффициенты матрицы : BT.709
Аудио
Идентификатор : 302 (0x12E)
Идентификатор меню : 20102 (0x4E86)
Формат : MPEG Audio
Версия формата : Version 1
Профиль формата : Layer 2
Идентификатор кодека : 3
Продолжительность : 27 м. 29 с.
Вид битрейта : Постоянный
Битрейт : 192 Кбит/сек
Каналы : 2 канала
Частота : 48,0 КГц
Частота кадров : 41,667 кадра/сек (1152 SPF)
Метод сжатия : С потерями
Размер потока : 37,8 Мбайт (2%)
Язык : Russian
Скриншоты
Download
Для скачивания .torrent файлов необходима регистрация
Сайт не распространяет и не хранит электронные версии произведений, а лишь предоставляет доступ к создаваемому пользователями каталогу ссылок на торрент-файлы, которые содержат только списки хеш-сумм
[Профиль]  [ЛС] 

AlexSchl

VIP (Заслуженный)

Стаж: 9 лет 7 месяцев

Сообщений: 3028

AlexSchl · 06-Май-17 23:32 (спустя 6 дней)

[Цитировать] 

karatak1
Цитата:
(в MI отсутствуют строки Encoding settings, Writing library)
# Сомнительно

[Профиль]  [ЛС] 

karatak1

Стаж: 9 лет

Сообщений: 577


karatak1 · 23-Июл-18 16:06 (спустя 1 год 2 месяца)

[Цитировать] 

файл обновлён на лучшее качество
[Профиль]  [ЛС] 
 
Ответить
Loading...
Error